Bad Religion – Radiation Hazard




No Cover available


Artist: Bad Religion
Year: 1995
Genre: Punk
Notes: Discogs
Add. Notes: Bootleg
Watch Songs on: YouTube
Cover incl.: Yes
Encoder: FLAC
Bitrate: ~1000 kBit/s (44.1 kHz/16 Bit/s)
Log & Cue incl.: Yes/Yes
Size: 523,8 MB
Password: “slam” (without ” “)


All Downloads/Hosters are compatible

Download 1
KatFile.com
Turbobit.net
Rapidgator.net
FileFactory.com
Download 2
KatFile.com
Turbobit.net
Rapidgator.net
FileFactory.com

Tracklist:

1 The Handshake 
2 Too Much To Ask 
3 Stranger Than Fiction 
4 American Jesus 
5 Infected 
6 Change Of Ideas 
7 Atomic Garden 
8 The Answer 
9 Flat Earth Society 
10 Individual 
11 Modern Man 
12 Modern Day Catastrophists 
13 Sanity 
14 Leave Mine To Me 
15 Do What You Want 
16 Yesterday 
17 Anesthesia 
18 Lookin' In 
19 21st Century (Digital Boy) 
20 Recipe For Hate 
21 Generator 
22 American Jesus 
23 Portrait Of Authority 
24 Get Off 
25 Pessimistic Lines 
26 Kerosene 
27 1000 More Fools 
28 Man With A Mission 
29 Fuck Armageddon... This Is Hell 
30 Atomic Garden

EAC-Log, CUE-Sheed & NFO:

Click to open spoiler
EAC extraction logfile from 22. November 2008, 22:27 for CD
Bad Religion / Radiation Hazard

Used drive : TSSTcorpCDRW/DVD TSL462C Adapter: 1 ID: 0
Read mode : Secure with NO C2, accurate stream, disable cache
Read offset correction : 6
Overread into Lead-In and Lead-Out : No

Used output format : C:\Program Files\FLAC\flac.exe (User Defined Encoder)
128 kBit/s
Additional command line options : -V -8 -T “artist=%A” -T “title=%t” -T “album=%g” -T “tracknumber=%n” -T “genre=%m” %s

Other options :
Fill up missing offset samples with silence : Yes
Delete leading and trailing silent blocks : No
Native Win32 interface for Win NT & 2000

Track 1
Filename C:\Documents and Settings\\Desktop\Music to burn\Bad Religion – Radiation Hazard (1995) [FLAC]\01 – The Handshake.wav

Pre-gap length 0:00:02.42

Peak level 81.4 %
Track quality 100.0 %
Test CRC F5C12470
Copy CRC F5C12470
Copy OK

Track 2
Filename C:\Documents and Settings\\Desktop\Music to burn\Bad Religion – Radiation Hazard (1995) [FLAC]\02 – Too Much To Ask.wav

Peak level 75.7 %
Track quality 100.0 %
Test CRC AABF84C4
Copy CRC AABF84C4
Copy OK

Track 3
Filename C:\Documents and Settings\\Desktop\Music to burn\Bad Religion – Radiation Hazard (1995) [FLAC]\03 – Stranger Than Fiction.wav

Peak level 75.7 %
Track quality 100.0 %
Test CRC 3BA80CA0
Copy CRC 3BA80CA0
Copy OK

Track 4
Filename C:\Documents and Settings\\Desktop\Music to burn\Bad Religion – Radiation Hazard (1995) [FLAC]\04 – American Jesus.wav

Peak level 84.3 %
Track quality 100.0 %
Test CRC B70985B0
Copy CRC B70985B0
Copy OK

Track 5
Filename C:\Documents and Settings\\Desktop\Music to burn\Bad Religion – Radiation Hazard (1995) [FLAC]\05 – Infected.wav

Peak level 79.7 %
Track quality 100.0 %
Test CRC 705C283B
Copy CRC 705C283B
Copy OK

Track 6
Filename C:\Documents and Settings\\Desktop\Music to burn\Bad Religion – Radiation Hazard (1995) [FLAC]\06 – Change Of Ideas.wav

Peak level 77.4 %
Track quality 100.0 %
Test CRC 1AC9352F
Copy CRC 1AC9352F
Copy OK

Track 7
Filename C:\Documents and Settings\\Desktop\Music to burn\Bad Religion – Radiation Hazard (1995) [FLAC]\07 – Atomic Garden.wav

Peak level 75.2 %
Track quality 99.9 %
Test CRC 476B0EB6
Copy CRC 476B0EB6
Copy OK

Track 8
Filename C:\Documents and Settings\\Desktop\Music to burn\Bad Religion – Radiation Hazard (1995) [FLAC]\08 – The Answer.wav

Peak level 74.6 %
Track quality 100.0 %
Test CRC 5D46D352
Copy CRC 5D46D352
Copy OK

Track 9
Filename C:\Documents and Settings\\Desktop\Music to burn\Bad Religion – Radiation Hazard (1995) [FLAC]\09 – Flat Earth Society.wav

Peak level 89.2 %
Track quality 100.0 %
Test CRC 568FEB66
Copy CRC 568FEB66
Copy OK

Track 10
Filename C:\Documents and Settings\\Desktop\Music to burn\Bad Religion – Radiation Hazard (1995) [FLAC]\10 – Individual.wav

Peak level 79.0 %
Track quality 100.0 %
Test CRC 952950C6
Copy CRC 952950C6
Copy OK

Track 11
Filename C:\Documents and Settings\\Desktop\Music to burn\Bad Religion – Radiation Hazard (1995) [FLAC]\11 – Moder Man.wav

Peak level 85.8 %
Track quality 100.0 %
Test CRC 6D90A591
Copy CRC 6D90A591
Copy OK

Track 12
Filename C:\Documents and Settings\\Desktop\Music to burn\Bad Religion – Radiation Hazard (1995) [FLAC]\12 – Modern Day Catastrophe.wav

Peak level 86.0 %
Track quality 100.0 %
Test CRC F07562A9
Copy CRC F07562A9
Copy OK

Track 13
Filename C:\Documents and Settings\\Desktop\Music to burn\Bad Religion – Radiation Hazard (1995) [FLAC]\13 – Sanity.wav

Peak level 91.3 %
Track quality 99.9 %
Test CRC F46D0CAA
Copy CRC F46D0CAA
Copy OK

Track 14
Filename C:\Documents and Settings\\Desktop\Music to burn\Bad Religion – Radiation Hazard (1995) [FLAC]\14 – Leave Mine To Me.wav

Peak level 84.3 %
Track quality 100.0 %
Test CRC F3E7B4CC
Copy CRC F3E7B4CC
Copy OK

Track 15
Filename C:\Documents and Settings\\Desktop\Music to burn\Bad Religion – Radiation Hazard (1995) [FLAC]\15 – Do What You Want.wav

Peak level 74.3 %
Track quality 100.0 %
Test CRC 559EDCCF
Copy CRC 559EDCCF
Copy OK

Track 16
Filename C:\Documents and Settings\\Desktop\Music to burn\Bad Religion – Radiation Hazard (1995) [FLAC]\16 – Yesterday.wav

Peak level 81.8 %
Track quality 100.0 %
Test CRC 11D4AFC9
Copy CRC 11D4AFC9
Copy OK

Track 17
Filename C:\Documents and Settings\\Desktop\Music to burn\Bad Religion – Radiation Hazard (1995) [FLAC]\17 – Anethesia.wav

Peak level 87.2 %
Track quality 99.9 %
Test CRC F601CC7D
Copy CRC F601CC7D
Copy OK

Track 18
Filename C:\Documents and Settings\\Desktop\Music to burn\Bad Religion – Radiation Hazard (1995) [FLAC]\18 – Looking In.wav

Peak level 86.0 %
Track quality 100.0 %
Test CRC E97131AF
Copy CRC E97131AF
Copy OK

Track 19
Filename C:\Documents and Settings\\Desktop\Music to burn\Bad Religion – Radiation Hazard (1995) [FLAC]\19 – 21st Century Digital Boy.wav

Peak level 91.1 %
Track quality 99.9 %
Test CRC BA0E649D
Copy CRC BA0E649D
Copy OK

Track 20
Filename C:\Documents and Settings\\Desktop\Music to burn\Bad Religion – Radiation Hazard (1995) [FLAC]\20 – Recipe For Hate.wav

Peak level 100.0 %
Track quality 100.0 %
Test CRC ED0D281E
Copy CRC ED0D281E
Copy OK

Track 21
Filename C:\Documents and Settings\\Desktop\Music to burn\Bad Religion – Radiation Hazard (1995) [FLAC]\21 – Generator.wav

Peak level 97.3 %
Track quality 100.0 %
Test CRC 04F0B39B
Copy CRC 04F0B39B
Copy OK

Track 22
Filename C:\Documents and Settings\\Desktop\Music to burn\Bad Religion – Radiation Hazard (1995) [FLAC]\22 – American Jesus.wav

Peak level 94.4 %
Track quality 100.0 %
Test CRC BC3C53B0
Copy CRC BC3C53B0
Copy OK

Track 23
Filename C:\Documents and Settings\\Desktop\Music to burn\Bad Religion – Radiation Hazard (1995) [FLAC]\23 – Portrait Of Authority.wav

Peak level 100.0 %
Track quality 100.0 %
Test CRC DD35EBFD
Copy CRC DD35EBFD
Copy OK

Track 24
Filename C:\Documents and Settings\\Desktop\Music to burn\Bad Religion – Radiation Hazard (1995) [FLAC]\24 – Get Off.wav

Peak level 95.9 %
Track quality 100.0 %
Test CRC 7FACF309
Copy CRC 7FACF309
Copy OK

Track 25
Filename C:\Documents and Settings\\Desktop\Music to burn\Bad Religion – Radiation Hazard (1995) [FLAC]\25 – Pessimistic Lines.wav

Peak level 99.1 %
Track quality 100.0 %
Test CRC 520C0B87
Copy CRC 520C0B87
Copy OK

Track 26
Filename C:\Documents and Settings\\Desktop\Music to burn\Bad Religion – Radiation Hazard (1995) [FLAC]\26 – Keroene.wav

Peak level 100.0 %
Track quality 100.0 %
Test CRC 49E39711
Copy CRC 49E39711
Copy OK

Track 27
Filename C:\Documents and Settings\\Desktop\Music to burn\Bad Religion – Radiation Hazard (1995) [FLAC]\27 – 1000 More Fools.wav

Peak level 97.0 %
Track quality 100.0 %
Test CRC 8A36383D
Copy CRC 8A36383D
Copy OK

Track 28
Filename C:\Documents and Settings\\Desktop\Music to burn\Bad Religion – Radiation Hazard (1995) [FLAC]\28 – Men With A Mission.wav

Peak level 92.7 %
Track quality 100.0 %
Test CRC F7AD625C
Copy CRC F7AD625C
Copy OK

Track 29
Filename C:\Documents and Settings\\Desktop\Music to burn\Bad Religion – Radiation Hazard (1995) [FLAC]\29 – Fuck Armageddon… This Is Hell.wav

Peak level 91.0 %
Track quality 100.0 %
Test CRC 5167B3A5
Copy CRC 5167B3A5
Copy OK

Track 30
Filename C:\Documents and Settings\\Desktop\Music to burn\Bad Religion – Radiation Hazard (1995) [FLAC]\30 – Atomic Garden.wav

Peak level 90.4 %
Track quality 99.9 %
Test CRC B1B16CE1
Copy CRC B1B16CE1
Copy OK

No errors occured

End of status report

REM GENRE “Punk Rock”
REM DATE 1995
REM DISCID B411F21E
REM COMMENT “ExactAudioCopy v0.95b4”
PERFORMER “Bad Religion”
TITLE “Radiation Hazard”
FILE “Bad Religion – Radiation Hazard (1995) [FLAC]\01 – The Handshake.wav” WAVE
TRACK 01 AUDIO
TITLE “The Handshake”
PERFORMER “Bad Religion”
PREGAP 00:00:32
INDEX 01 00:00:00
FILE “Bad Religion – Radiation Hazard (1995) [FLAC]\02 – Too Much To Ask.wav” WAVE
TRACK 02 AUDIO
TITLE “Too Much To Ask”
PERFORMER “Bad Religion”
INDEX 01 00:00:00
FILE “Bad Religion – Radiation Hazard (1995) [FLAC]\03 – Stranger Than Fiction.wav” WAVE
TRACK 03 AUDIO
TITLE “Stranger Than Fiction”
PERFORMER “Bad Religion”
INDEX 01 00:00:00
FILE “Bad Religion – Radiation Hazard (1995) [FLAC]\04 – American Jesus.wav” WAVE
TRACK 04 AUDIO
TITLE “American Jesus”
PERFORMER “Bad Religion”
INDEX 01 00:00:00
FILE “Bad Religion – Radiation Hazard (1995) [FLAC]\05 – Infected.wav” WAVE
TRACK 05 AUDIO
TITLE “Infected”
PERFORMER “Bad Religion”
INDEX 01 00:00:00
FILE “Bad Religion – Radiation Hazard (1995) [FLAC]\06 – Change Of Ideas.wav” WAVE
TRACK 06 AUDIO
TITLE “Change Of Ideas”
PERFORMER “Bad Religion”
INDEX 01 00:00:00
FILE “Bad Religion – Radiation Hazard (1995) [FLAC]\07 – Atomic Garden.wav” WAVE
TRACK 07 AUDIO
TITLE “Atomic Garden”
PERFORMER “Bad Religion”
INDEX 01 00:00:00
FILE “Bad Religion – Radiation Hazard (1995) [FLAC]\08 – The Answer.wav” WAVE
TRACK 08 AUDIO
TITLE “The Answer”
PERFORMER “Bad Religion”
INDEX 01 00:00:00
FILE “Bad Religion – Radiation Hazard (1995) [FLAC]\09 – Flat Earth Society.wav” WAVE
TRACK 09 AUDIO
TITLE “Flat Earth Society”
PERFORMER “Bad Religion”
INDEX 01 00:00:00
FILE “Bad Religion – Radiation Hazard (1995) [FLAC]\10 – Individual.wav” WAVE
TRACK 10 AUDIO
TITLE “Individual”
PERFORMER “Bad Religion”
INDEX 01 00:00:00
FILE “Bad Religion – Radiation Hazard (1995) [FLAC]\11 – Moder Man.wav” WAVE
TRACK 11 AUDIO
TITLE “Moder Man”
PERFORMER “Bad Religion”
INDEX 01 00:00:00
FILE “Bad Religion – Radiation Hazard (1995) [FLAC]\12 – Modern Day Catastrophe.wav” WAVE
TRACK 12 AUDIO
TITLE “Modern Day Catastrophe”
PERFORMER “Bad Religion”
INDEX 01 00:00:00
FILE “Bad Religion – Radiation Hazard (1995) [FLAC]\13 – Sanity.wav” WAVE
TRACK 13 AUDIO
TITLE “Sanity”
PERFORMER “Bad Religion”
INDEX 01 00:00:00
FILE “Bad Religion – Radiation Hazard (1995) [FLAC]\14 – Leave Mine To Me.wav” WAVE
TRACK 14 AUDIO
TITLE “Leave Mine To Me”
PERFORMER “Bad Religion”
INDEX 01 00:00:00
FILE “Bad Religion – Radiation Hazard (1995) [FLAC]\15 – Do What You Want.wav” WAVE
TRACK 15 AUDIO
TITLE “Do What You Want”
PERFORMER “Bad Religion”
INDEX 01 00:00:00
FILE “Bad Religion – Radiation Hazard (1995) [FLAC]\16 – Yesterday.wav” WAVE
TRACK 16 AUDIO
TITLE “Yesterday”
PERFORMER “Bad Religion”
INDEX 01 00:00:00
FILE “Bad Religion – Radiation Hazard (1995) [FLAC]\17 – Anethesia.wav” WAVE
TRACK 17 AUDIO
TITLE “Anethesia”
PERFORMER “Bad Religion”
INDEX 01 00:00:00
FILE “Bad Religion – Radiation Hazard (1995) [FLAC]\18 – Looking In.wav” WAVE
TRACK 18 AUDIO
TITLE “Looking In”
PERFORMER “Bad Religion”
INDEX 01 00:00:00
FILE “Bad Religion – Radiation Hazard (1995) [FLAC]\19 – 21st Century Digital Boy.wav” WAVE
TRACK 19 AUDIO
TITLE “21st Century Digital Boy”
PERFORMER “Bad Religion”
INDEX 01 00:00:00
FILE “Bad Religion – Radiation Hazard (1995) [FLAC]\20 – Recipe For Hate.wav” WAVE
TRACK 20 AUDIO
TITLE “Recipe For Hate”
PERFORMER “Bad Religion”
INDEX 01 00:00:00
FILE “Bad Religion – Radiation Hazard (1995) [FLAC]\21 – Generator.wav” WAVE
TRACK 21 AUDIO
TITLE “Generator”
PERFORMER “Bad Religion”
INDEX 01 00:00:00
FILE “Bad Religion – Radiation Hazard (1995) [FLAC]\22 – American Jesus.wav” WAVE
TRACK 22 AUDIO
TITLE “American Jesus”
PERFORMER “Bad Religion”
INDEX 01 00:00:00
FILE “Bad Religion – Radiation Hazard (1995) [FLAC]\23 – Portrait Of Authority.wav” WAVE
TRACK 23 AUDIO
TITLE “Portrait Of Authority”
PERFORMER “Bad Religion”
INDEX 01 00:00:00
FILE “Bad Religion – Radiation Hazard (1995) [FLAC]\24 – Get Off.wav” WAVE
TRACK 24 AUDIO
TITLE “Get Off”
PERFORMER “Bad Religion”
INDEX 01 00:00:00
FILE “Bad Religion – Radiation Hazard (1995) [FLAC]\25 – Pessimistic Lines.wav” WAVE
TRACK 25 AUDIO
TITLE “Pessimistic Lines”
PERFORMER “Bad Religion”
INDEX 01 00:00:00
FILE “Bad Religion – Radiation Hazard (1995) [FLAC]\26 – Keroene.wav” WAVE
TRACK 26 AUDIO
TITLE “Keroene”
PERFORMER “Bad Religion”
INDEX 01 00:00:00
FILE “Bad Religion – Radiation Hazard (1995) [FLAC]\27 – 1000 More Fools.wav” WAVE
TRACK 27 AUDIO
TITLE “1000 More Fools”
PERFORMER “Bad Religion”
INDEX 01 00:00:00
FILE “Bad Religion – Radiation Hazard (1995) [FLAC]\28 – Men With A Mission.wav” WAVE
TRACK 28 AUDIO
TITLE “Men With A Mission”
PERFORMER “Bad Religion”
INDEX 01 00:00:00
FILE “Bad Religion – Radiation Hazard (1995) [FLAC]\29 – Fuck Armageddon… This Is Hell.wav” WAVE
TRACK 29 AUDIO
TITLE “Fuck Armageddon… This Is Hell”
PERFORMER “Bad Religion”
INDEX 01 00:00:00
FILE “Bad Religion – Radiation Hazard (1995) [FLAC]\30 – Atomic Garden.wav” WAVE
TRACK 30 AUDIO
TITLE “Atomic Garden”
PERFORMER “Bad Religion”
INDEX 01 00:00:00


Leave a Reply

Your email address will not be published. Required fields are marked *

Enter the text from the image below
 

This site uses Akismet to reduce spam. Learn how your comment data is processed.