Bad Religion & NOFX – Eat Or Die




No Cover available

Artist: Bad Religion & NOFX
Year: 1995
Genre: Punk
Notes: Discogs
Add. Notes:
Watch Songs on: YouTube
Cover incl.: Yes
Encoder: FLAC
Bitrate: ~900 kBit/s (44.1 kHz/16 Bit/s)
Log & Cue incl.: Yes/Yes
Size: 522,3 MB
Password: “slam” (without ” “)


All Downloads/Hosters are compatible

Download 1
KatFile.com
Turbobit.net
Rapidgator.net
FileFactory.com
Download 2
KatFile.com
Turbobit.net
Rapidgator.net
FileFactory.com

Tracklist:

1. Bad Religion - The Handshake - 3:28
2. Bad Religion - Too Much To Ask - 3:04
3. Bad Religion - Stranger Than Fiction - 2:10
4. Bad Religion - American Jesus - 3:22
5. Bad Religion - Infected - 4:08
6. Bad Religion - Change Of Ideas - 0:54
7. Bad Religion - Atomic Garden - 2:46
8. Bad Religion - The Answer - 3:39
9. Bad Religion - Flat Earth Society - 3:50
10. Bad Religion - Individual - 2:00
11. Bad Religion - Modern Man - 1:50
12. Bad Religion - Modern Day Catastrophists - 4:10
13. Bad Religion - Sanity - 2:47
14. Bad Religion - Leave Mine To Me - 2:08
15. Bad Religion - Generator - 3:02
16. Bad Religion - Do What You Want - 1:02
17. Bad Religion - Yesterday - 3:01
18. Bad Religion - Anesthesia - 2:41
19. Bad Religion - Lookin' In - 2:00
20. Bad Religion - 21st Century Digital Boy - 3:11
21. NO FX* - Together On The Sand - 1:09
22. NO FX* - Nowhere - 1:50
23. NO FX* - Stickin' In My Eye - 2:34
24. NO FX* - Bob - 2:19
25. NO FX* - You Are Bleeding - 4:40
26. NO FX* - Straight Edge - 2:40
27. NO FX* - Lisa And Louise - 2:30
28. NO FX* - Shower Days - 2:44
29. NO FX* - Kill All The White Men - 3:19

EAC-Log, CUE-Sheed & NFO:

Click to open spoiler
REM GENRE “Punk Rock”
REM DATE 1995
REM DISCID 9C12801D
REM COMMENT “ExactAudioCopy v0.95b4”
PERFORMER “Bad Religion”
TITLE “Eat Or Die”
FILE “Bad Religion – Eat Or Die (1995) [FLAC]\01 – The Handshake.wav” WAVE
TRACK 01 AUDIO
TITLE “The Handshake”
PERFORMER “Bad Religion”
PREEAC extraction logfile from 28. November 2008, 1:14 for CD
Bad Religion / Eat Or Die

Used drive : TSSTcorpCDRW/DVD TSL462C Adapter: 1 ID: 0
Read mode : Secure with NO C2, accurate stream, disable cache
Read offset correction : 6
Overread into Lead-In and Lead-Out : No

Used output format : C:\Program Files\FLAC\flac.exe (User Defined Encoder)
128 kBit/s
Additional command line options : -V -8 -T “artist=%A” -T “title=%t” -T “album=%g” -T “tracknumber=%n” -T “genre=%m” %s

Other options :
Fill up missing offset samples with silence : Yes
Delete leading and trailing silent blocks : No
Native Win32 interface for Win NT & 2000

Track 1
Filename C:\Documents and Settings\gkelley\Desktop\Music to burn\Bad Religion – Eat Or Die (1995) [FLAC]\01 – The Handshake.wav

Pre-gap length 0:00:02.42

Peak level 98.0 %
Track quality 100.0 %
Test CRC 07A1AD71
Copy CRC 07A1AD71
Copy OK

Track 2
Filename C:\Documents and Settings\gkelley\Desktop\Music to burn\Bad Religion – Eat Or Die (1995) [FLAC]\02 – Too Much To Ask.wav

Peak level 90.1 %
Track quality 100.0 %
Test CRC FFA23D85
Copy CRC FFA23D85
Copy OK

Track 3
Filename C:\Documents and Settings\gkelley\Desktop\Music to burn\Bad Religion – Eat Or Die (1995) [FLAC]\03 – Steanger Than Fiction.wav

Peak level 90.9 %
Track quality 100.0 %
Test CRC C197DDFF
Copy CRC C197DDFF
Copy OK

Track 4
Filename C:\Documents and Settings\gkelley\Desktop\Music to burn\Bad Religion – Eat Or Die (1995) [FLAC]\04 – American Jesus.wav

Peak level 92.9 %
Track quality 100.0 %
Test CRC D3FD32F9
Copy CRC D3FD32F9
Copy OK

Track 5
Filename C:\Documents and Settings\gkelley\Desktop\Music to burn\Bad Religion – Eat Or Die (1995) [FLAC]\05 – Infected.wav

Peak level 99.8 %
Track quality 100.0 %
Test CRC BB17109C
Copy CRC BB17109C
Copy OK

Track 6
Filename C:\Documents and Settings\gkelley\Desktop\Music to burn\Bad Religion – Eat Or Die (1995) [FLAC]\06 – Chahnge Of Ideas.wav

Peak level 89.8 %
Track quality 100.0 %
Test CRC FE145ADA
Copy CRC FE145ADA
Copy OK

Track 7
Filename C:\Documents and Settings\gkelley\Desktop\Music to burn\Bad Religion – Eat Or Die (1995) [FLAC]\07 – Atomic Garden.wav

Peak level 90.6 %
Track quality 100.0 %
Test CRC 6FE07193
Copy CRC 6FE07193
Copy OK

Track 8
Filename C:\Documents and Settings\gkelley\Desktop\Music to burn\Bad Religion – Eat Or Die (1995) [FLAC]\08 – The Answer.wav

Peak level 90.9 %
Track quality 99.9 %
Test CRC 1EDBD117
Copy CRC 1EDBD117
Copy OK

Track 9
Filename C:\Documents and Settings\gkelley\Desktop\Music to burn\Bad Religion – Eat Or Die (1995) [FLAC]\09 – Flat Earth Society.wav

Peak level 95.2 %
Track quality 99.9 %
Test CRC E6D2396A
Copy CRC E6D2396A
Copy OK

Track 10
Filename C:\Documents and Settings\gkelley\Desktop\Music to burn\Bad Religion – Eat Or Die (1995) [FLAC]\10 – Individual.wav

Peak level 89.2 %
Track quality 100.0 %
Test CRC 1651E400
Copy CRC 1651E400
Copy OK

Track 11
Filename C:\Documents and Settings\gkelley\Desktop\Music to burn\Bad Religion – Eat Or Die (1995) [FLAC]\11 – Modern Man.wav

Peak level 88.2 %
Track quality 100.0 %
Test CRC FA4CA08B
Copy CRC FA4CA08B
Copy OK

Track 12
Filename C:\Documents and Settings\gkelley\Desktop\Music to burn\Bad Religion – Eat Or Die (1995) [FLAC]\12 – Modern Day Catastrophists.wav

Peak level 92.2 %
Track quality 100.0 %
Test CRC B2EFD9D2
Copy CRC B2EFD9D2
Copy OK

Track 13
Filename C:\Documents and Settings\gkelley\Desktop\Music to burn\Bad Religion – Eat Or Die (1995) [FLAC]\13 – Sanity.wav

Peak level 94.5 %
Track quality 100.0 %
Test CRC A5BFA942
Copy CRC A5BFA942
Copy OK

Track 14
Filename C:\Documents and Settings\gkelley\Desktop\Music to burn\Bad Religion – Eat Or Die (1995) [FLAC]\14 – Leave Mine To Me.wav

Peak level 95.9 %
Track quality 99.9 %
Test CRC 41DDF468
Copy CRC 41DDF468
Copy OK

Track 15
Filename C:\Documents and Settings\gkelley\Desktop\Music to burn\Bad Religion – Eat Or Die (1995) [FLAC]\15 – Generator.wav

Peak level 94.8 %
Track quality 100.0 %
Test CRC 719C8A24
Copy CRC 719C8A24
Copy OK

Track 16
Filename C:\Documents and Settings\gkelley\Desktop\Music to burn\Bad Religion – Eat Or Die (1995) [FLAC]\16 – Do What You Want.wav

Peak level 92.3 %
Track quality 100.0 %
Test CRC 8A29952C
Copy CRC 8A29952C
Copy OK

Track 17
Filename C:\Documents and Settings\gkelley\Desktop\Music to burn\Bad Religion – Eat Or Die (1995) [FLAC]\17 – Yesterday.wav

Pre-gap length 0:00:00.84

Peak level 93.5 %
Track quality 100.0 %
Test CRC D3E6542B
Copy CRC D3E6542B
Copy OK

Track 18
Filename C:\Documents and Settings\gkelley\Desktop\Music to burn\Bad Religion – Eat Or Die (1995) [FLAC]\18 – Anesthesia.wav

Peak level 99.8 %
Track quality 99.9 %
Test CRC CD062E82
Copy CRC CD062E82
Copy OK

Track 19
Filename C:\Documents and Settings\gkelley\Desktop\Music to burn\Bad Religion – Eat Or Die (1995) [FLAC]\19 – Lookin’ In.wav

Peak level 97.5 %
Track quality 100.0 %
Test CRC 600CC717
Copy CRC 600CC717
Copy OK

Track 20
Filename C:\Documents and Settings\gkelley\Desktop\Music to burn\Bad Religion – Eat Or Die (1995) [FLAC]\20 – 21st Century (Digital Boy).wav

Peak level 95.5 %
Track quality 100.0 %
Test CRC 4F5403A9
Copy CRC 4F5403A9
Copy OK

Track 21
Filename C:\Documents and Settings\gkelley\Desktop\Music to burn\Bad Religion – Eat Or Die (1995) [FLAC]\21 – Together On The Sand.wav

Pre-gap length 0:00:01.82

Peak level 78.9 %
Track quality 99.8 %
Test CRC FA39B989
Copy CRC FA39B989
Copy OK

Track 22
Filename C:\Documents and Settings\gkelley\Desktop\Music to burn\Bad Religion – Eat Or Die (1995) [FLAC]\22 – Nowhere.wav

Peak level 90.9 %
Track quality 99.9 %
Test CRC E049E7A6
Copy CRC E049E7A6
Copy OK

Track 23
Filename C:\Documents and Settings\gkelley\Desktop\Music to burn\Bad Religion – Eat Or Die (1995) [FLAC]\23 – Stickin’ In My Eye.wav

Peak level 87.8 %
Track quality 100.0 %
Test CRC 2453A2E6
Copy CRC 2453A2E6
Copy OK

Track 24
Filename C:\Documents and Settings\gkelley\Desktop\Music to burn\Bad Religion – Eat Or Die (1995) [FLAC]\24 – Bob.wav

Peak level 95.3 %
Track quality 100.0 %
Test CRC D4AD016D
Copy CRC D4AD016D
Copy OK

Track 25
Filename C:\Documents and Settings\gkelley\Desktop\Music to burn\Bad Religion – Eat Or Die (1995) [FLAC]\25 – You Are Bleeding.wav

Peak level 82.0 %
Track quality 100.0 %
Test CRC AB9B8546
Copy CRC AB9B8546
Copy OK

Track 26
Filename C:\Documents and Settings\gkelley\Desktop\Music to burn\Bad Religion – Eat Or Die (1995) [FLAC]\26 – Straight Edge.wav

Peak level 80.8 %
Track quality 100.0 %
Test CRC F912528F
Copy CRC F912528F
Copy OK

Track 27
Filename C:\Documents and Settings\gkelley\Desktop\Music to burn\Bad Religion – Eat Or Die (1995) [FLAC]\27 – Lisa And Louise.wav

Peak level 92.4 %
Track quality 100.0 %
Test CRC 231803E5
Copy CRC 231803E5
Copy OK

Track 28
Filename C:\Documents and Settings\gkelley\Desktop\Music to burn\Bad Religion – Eat Or Die (1995) [FLAC]\28 – Shower Days.wav

Peak level 93.6 %
Track quality 100.0 %
Test CRC 452742DE
Copy CRC 452742DE
Copy OK

Track 29
Filename C:\Documents and Settings\gkelley\Desktop\Music to burn\Bad Religion – Eat Or Die (1995) [FLAC]\29 – Kill All The White Men.wav

Peak level 96.7 %
Track quality 100.0 %
Test CRC D0CEBF72
Copy CRC D0CEBF72
Copy OK

No errors occured

End of status report

GAP 00:00:32
INDEX 01 00:00:00
FILE “Bad Religion – Eat Or Die (1995) [FLAC]\02 – Too Much To Ask.wav” WAVE
TRACK 02 AUDIO
TITLE “Too Much To Ask”
PERFORMER “Bad Religion”
INDEX 01 00:00:00
FILE “Bad Religion – Eat Or Die (1995) [FLAC]\03 – Steanger Than Fiction.wav” WAVE
TRACK 03 AUDIO
TITLE “Steanger Than Fiction”
PERFORMER “Bad Religion”
INDEX 01 00:00:00
FILE “Bad Religion – Eat Or Die (1995) [FLAC]\04 – American Jesus.wav” WAVE
TRACK 04 AUDIO
TITLE “American Jesus”
PERFORMER “Bad Religion”
INDEX 01 00:00:00
FILE “Bad Religion – Eat Or Die (1995) [FLAC]\05 – Infected.wav” WAVE
TRACK 05 AUDIO
TITLE “Infected”
PERFORMER “Bad Religion”
INDEX 01 00:00:00
FILE “Bad Religion – Eat Or Die (1995) [FLAC]\06 – Chahnge Of Ideas.wav” WAVE
TRACK 06 AUDIO
TITLE “Chahnge Of Ideas”
PERFORMER “Bad Religion”
INDEX 01 00:00:00
FILE “Bad Religion – Eat Or Die (1995) [FLAC]\07 – Atomic Garden.wav” WAVE
TRACK 07 AUDIO
TITLE “Atomic Garden”
PERFORMER “Bad Religion”
INDEX 01 00:00:00
FILE “Bad Religion – Eat Or Die (1995) [FLAC]\08 – The Answer.wav” WAVE
TRACK 08 AUDIO
TITLE “The Answer”
PERFORMER “Bad Religion”
INDEX 01 00:00:00
FILE “Bad Religion – Eat Or Die (1995) [FLAC]\09 – Flat Earth Society.wav” WAVE
TRACK 09 AUDIO
TITLE “Flat Earth Society”
PERFORMER “Bad Religion”
INDEX 01 00:00:00
FILE “Bad Religion – Eat Or Die (1995) [FLAC]\10 – Individual.wav” WAVE
TRACK 10 AUDIO
TITLE “Individual”
PERFORMER “Bad Religion”
INDEX 01 00:00:00
FILE “Bad Religion – Eat Or Die (1995) [FLAC]\11 – Modern Man.wav” WAVE
TRACK 11 AUDIO
TITLE “Modern Man”
PERFORMER “Bad Religion”
INDEX 01 00:00:00
FILE “Bad Religion – Eat Or Die (1995) [FLAC]\12 – Modern Day Catastrophists.wav” WAVE
TRACK 12 AUDIO
TITLE “Modern Day Catastrophists”
PERFORMER “Bad Religion”
INDEX 01 00:00:00
FILE “Bad Religion – Eat Or Die (1995) [FLAC]\13 – Sanity.wav” WAVE
TRACK 13 AUDIO
TITLE “Sanity”
PERFORMER “Bad Religion”
INDEX 01 00:00:00
FILE “Bad Religion – Eat Or Die (1995) [FLAC]\14 – Leave Mine To Me.wav” WAVE
TRACK 14 AUDIO
TITLE “Leave Mine To Me”
PERFORMER “Bad Religion”
INDEX 01 00:00:00
FILE “Bad Religion – Eat Or Die (1995) [FLAC]\15 – Generator.wav” WAVE
TRACK 15 AUDIO
TITLE “Generator”
PERFORMER “Bad Religion”
INDEX 01 00:00:00
FILE “Bad Religion – Eat Or Die (1995) [FLAC]\16 – Do What You Want.wav” WAVE
TRACK 16 AUDIO
TITLE “Do What You Want”
PERFORMER “Bad Religion”
INDEX 01 00:00:00
TRACK 17 AUDIO
TITLE “Yesterday”
PERFORMER “Bad Religion”
INDEX 00 01:01:32
FILE “Bad Religion – Eat Or Die (1995) [FLAC]\17 – Yesterday.wav” WAVE
INDEX 01 00:00:00
FILE “Bad Religion – Eat Or Die (1995) [FLAC]\18 – Anesthesia.wav” WAVE
TRACK 18 AUDIO
TITLE “Anesthesia”
PERFORMER “Bad Religion”
INDEX 01 00:00:00
FILE “Bad Religion – Eat Or Die (1995) [FLAC]\19 – Lookin’ In.wav” WAVE
TRACK 19 AUDIO
TITLE “Lookin’ In”
PERFORMER “Bad Religion”
INDEX 01 00:00:00
FILE “Bad Religion – Eat Or Die (1995) [FLAC]\20 – 21st Century (Digital Boy).wav” WAVE
TRACK 20 AUDIO
TITLE “21st Century (Digital Boy)”
PERFORMER “Bad Religion”
INDEX 01 00:00:00
TRACK 21 AUDIO
TITLE “Together On The Sand”
PERFORMER “Bad Religion”
INDEX 00 03:09:03
FILE “Bad Religion – Eat Or Die (1995) [FLAC]\21 – Together On The Sand.wav” WAVE
INDEX 01 00:00:00
FILE “Bad Religion – Eat Or Die (1995) [FLAC]\22 – Nowhere.wav” WAVE
TRACK 22 AUDIO
TITLE “Nowhere”
PERFORMER “Bad Religion”
INDEX 01 00:00:00
FILE “Bad Religion – Eat Or Die (1995) [FLAC]\23 – Stickin’ In My Eye.wav” WAVE
TRACK 23 AUDIO
TITLE “Stickin’ In My Eye”
PERFORMER “Bad Religion”
INDEX 01 00:00:00
FILE “Bad Religion – Eat Or Die (1995) [FLAC]\24 – Bob.wav” WAVE
TRACK 24 AUDIO
TITLE “Bob”
PERFORMER “Bad Religion”
INDEX 01 00:00:00
FILE “Bad Religion – Eat Or Die (1995) [FLAC]\25 – You Are Bleeding.wav” WAVE
TRACK 25 AUDIO
TITLE “You Are Bleeding”
PERFORMER “Bad Religion”
INDEX 01 00:00:00
FILE “Bad Religion – Eat Or Die (1995) [FLAC]\26 – Straight Edge.wav” WAVE
TRACK 26 AUDIO
TITLE “Straight Edge”
PERFORMER “Bad Religion”
INDEX 01 00:00:00
FILE “Bad Religion – Eat Or Die (1995) [FLAC]\27 – Lisa And Louise.wav” WAVE
TRACK 27 AUDIO
TITLE “Lisa And Louise”
PERFORMER “Bad Religion”
INDEX 01 00:00:00
FILE “Bad Religion – Eat Or Die (1995) [FLAC]\28 – Shower Days.wav” WAVE
TRACK 28 AUDIO
TITLE “Shower Days”
PERFORMER “Bad Religion”
INDEX 01 00:00:00
FILE “Bad Religion – Eat Or Die (1995) [FLAC]\29 – Kill All The White Men.wav” WAVE
TRACK 29 AUDIO
TITLE “Kill All The White Men”
PERFORMER “Bad Religion”
INDEX 01 00:00:00


Leave a Reply

Your email address will not be published. Required fields are marked *

Enter the text from the image below
 

This site uses Akismet to reduce spam. Learn how your comment data is processed.