Bad Religion – Flat Earth Society




No Cover available

Artist: Bad Religion
Year: 1995
Genre: Rock
Notes: Discogs
Add. Notes:
Watch Songs on: YouTube
Cover incl.: Yes
Encoder: FLAC
Bitrate: ~900 kBit/s (44.1 kHz/16 Bit/s)
Log & Cue incl.: Yes/Yes
Size: 317,1 MB
Password: “slam” (without ” “)


All Downloads/Hosters are compatible

Download 1
KatFile.com
Turbobit.net
Rapidgator.net
FileFactory.com
Download 2
KatFile.com
Turbobit.net
Rapidgator.net
FileFactory.com

Tracklist:

1 The Handshake 
2 Too Much To Ask 
3 Stranger Than Fiction 
4 American Jesus 
5 Infected 
6 Change Of Ideas 
7 Atomic Garden 
8 Flat Earth Society 
9 Individual 
10 Modern Man 
11 Mediocrity 
12 Sanity 
13 Leave Mine To Me 
14 Generator 
15 Yesterday 
16 Anesthesia 
17 Lookin In 
18 21st Century (Digital Boy)

EAC-Log, CUE-Sheed & NFO:

Click to open spoiler
EAC extraction logfile from 27. November 2008, 18:35 for CD
Bad Religion / Flat Earth Society

Used drive : TSSTcorpCDRW/DVD TSL462C Adapter: 1 ID: 0
Read mode : Secure with NO C2, accurate stream, disable cache
Read offset correction : 6
Overread into Lead-In and Lead-Out : No

Used output format : C:\Program Files\FLAC\flac.exe (User Defined Encoder)
128 kBit/s
Additional command line options : -V -8 -T “artist=%A” -T “title=%t” -T “album=%g” -T “tracknumber=%n” -T “genre=%m” %s

Other options :
Fill up missing offset samples with silence : Yes
Delete leading and trailing silent blocks : No
Native Win32 interface for Win NT & 2000

Track 1
Filename C:\Documents and Settings\gkelley\Desktop\Music to burn\Bad Religion – Flat Earth Society (1995) [FLAC]\01 – The Handshake.wav

Pre-gap length 0:00:02.40

Peak level 100.0 %
Track quality 100.0 %
Test CRC 6B0E964C
Copy CRC 6B0E964C
Copy OK

Track 2
Filename C:\Documents and Settings\gkelley\Desktop\Music to burn\Bad Religion – Flat Earth Society (1995) [FLAC]\02 – Too Much To Ask.wav

Peak level 100.0 %
Track quality 100.0 %
Test CRC 4F21ECC9
Copy CRC 4F21ECC9
Copy OK

Track 3
Filename C:\Documents and Settings\gkelley\Desktop\Music to burn\Bad Religion – Flat Earth Society (1995) [FLAC]\03 – Stranger Than Fiction.wav

Peak level 100.0 %
Track quality 100.0 %
Test CRC 07825301
Copy CRC 07825301
Copy OK

Track 4
Filename C:\Documents and Settings\gkelley\Desktop\Music to burn\Bad Religion – Flat Earth Society (1995) [FLAC]\04 – American Jesus.wav

Peak level 100.0 %
Track quality 100.0 %
Test CRC B81F3D10
Copy CRC B81F3D10
Copy OK

Track 5
Filename C:\Documents and Settings\gkelley\Desktop\Music to burn\Bad Religion – Flat Earth Society (1995) [FLAC]\05 – Infected.wav

Peak level 100.0 %
Track quality 99.9 %
Test CRC DF3827DF
Copy CRC DF3827DF
Copy OK

Track 6
Filename C:\Documents and Settings\gkelley\Desktop\Music to burn\Bad Religion – Flat Earth Society (1995) [FLAC]\06 – Change Of Ideas.wav

Peak level 100.0 %
Track quality 99.8 %
Test CRC 6C65C420
Copy CRC 6C65C420
Copy OK

Track 7
Filename C:\Documents and Settings\gkelley\Desktop\Music to burn\Bad Religion – Flat Earth Society (1995) [FLAC]\07 – Atomic Garden.wav

Peak level 100.0 %
Track quality 99.9 %
Test CRC BAF5449D
Copy CRC BAF5449D
Copy OK

Track 8
Filename C:\Documents and Settings\gkelley\Desktop\Music to burn\Bad Religion – Flat Earth Society (1995) [FLAC]\08 – Flat Earth Society.wav

Peak level 100.0 %
Track quality 99.9 %
Test CRC 1CEE254E
Copy CRC 1CEE254E
Copy OK

Track 9
Filename C:\Documents and Settings\gkelley\Desktop\Music to burn\Bad Religion – Flat Earth Society (1995) [FLAC]\09 – Individual.wav

Peak level 100.0 %
Track quality 100.0 %
Test CRC 30D84F17
Copy CRC 30D84F17
Copy OK

Track 10
Filename C:\Documents and Settings\gkelley\Desktop\Music to burn\Bad Religion – Flat Earth Society (1995) [FLAC]\10 – Modern Man.wav

Peak level 100.0 %
Track quality 100.0 %
Test CRC 87012BB5
Copy CRC 87012BB5
Copy OK

Track 11
Filename C:\Documents and Settings\gkelley\Desktop\Music to burn\Bad Religion – Flat Earth Society (1995) [FLAC]\11 – Mediocrity.wav

Peak level 100.0 %
Track quality 100.0 %
Test CRC AA83F39F
Copy CRC AA83F39F
Copy OK

Track 12
Filename C:\Documents and Settings\gkelley\Desktop\Music to burn\Bad Religion – Flat Earth Society (1995) [FLAC]\12 – Sanity.wav

Peak level 100.0 %
Track quality 100.0 %
Test CRC B6DDB746
Copy CRC B6DDB746
Copy OK

Track 13
Filename C:\Documents and Settings\gkelley\Desktop\Music to burn\Bad Religion – Flat Earth Society (1995) [FLAC]\13 – Leave Mine To Me.wav

Peak level 100.0 %
Track quality 100.0 %
Test CRC D2020428
Copy CRC D2020428
Copy OK

Track 14
Filename C:\Documents and Settings\gkelley\Desktop\Music to burn\Bad Religion – Flat Earth Society (1995) [FLAC]\14 – Generator.wav

Peak level 100.0 %
Track quality 100.0 %
Test CRC DA275510
Copy CRC DA275510
Copy OK

Track 15
Filename C:\Documents and Settings\gkelley\Desktop\Music to burn\Bad Religion – Flat Earth Society (1995) [FLAC]\15 – Yesterday.wav

Peak level 100.0 %
Track quality 100.0 %
Test CRC 719F0291
Copy CRC 719F0291
Copy OK

Track 16
Filename C:\Documents and Settings\gkelley\Desktop\Music to burn\Bad Religion – Flat Earth Society (1995) [FLAC]\16 – Anesthesia.wav

Peak level 100.0 %
Track quality 100.0 %
Test CRC 57835D98
Copy CRC 57835D98
Copy OK

Track 17
Filename C:\Documents and Settings\gkelley\Desktop\Music to burn\Bad Religion – Flat Earth Society (1995) [FLAC]\17 – Lookin’ In.wav

Peak level 100.0 %
Track quality 99.9 %
Test CRC 4CD3F3E7
Copy CRC 4CD3F3E7
Copy OK

Track 18
Filename C:\Documents and Settings\gkelley\Desktop\Music to burn\Bad Religion – Flat Earth Society (1995) [FLAC]\18 – 21st Century Digital Boy.wav

Peak level 100.0 %
Track quality 99.9 %
Test CRC 0E8D18E7
Copy CRC 0E8D18E7
Copy OK

No errors occured

End of status report

REM GENRE “Punk Rock”
REM DATE 1995
REM DISCID 020B1E12
REM COMMENT “ExactAudioCopy v0.95b4”
PERFORMER “Bad Religion”
TITLE “Flat Earth Society”
FILE “Bad Religion – Flat Earth Society (1995) [FLAC]\01 – The Handshake.wav” WAVE
TRACK 01 AUDIO
TITLE “The Handshake”
PERFORMER “Bad Religion”
FLAGS DCP
PREGAP 00:00:30
INDEX 01 00:00:00
FILE “Bad Religion – Flat Earth Society (1995) [FLAC]\02 – Too Much To Ask.wav” WAVE
TRACK 02 AUDIO
TITLE “Too Much To Ask”
PERFORMER “Bad Religion”
FLAGS DCP
INDEX 01 00:00:00
FILE “Bad Religion – Flat Earth Society (1995) [FLAC]\03 – Stranger Than Fiction.wav” WAVE
TRACK 03 AUDIO
TITLE “Stranger Than Fiction”
PERFORMER “Bad Religion”
FLAGS DCP
INDEX 01 00:00:00
FILE “Bad Religion – Flat Earth Society (1995) [FLAC]\04 – American Jesus.wav” WAVE
TRACK 04 AUDIO
TITLE “American Jesus”
PERFORMER “Bad Religion”
FLAGS DCP
INDEX 01 00:00:00
FILE “Bad Religion – Flat Earth Society (1995) [FLAC]\05 – Infected.wav” WAVE
TRACK 05 AUDIO
TITLE “Infected”
PERFORMER “Bad Religion”
FLAGS DCP
INDEX 01 00:00:00
FILE “Bad Religion – Flat Earth Society (1995) [FLAC]\06 – Change Of Ideas.wav” WAVE
TRACK 06 AUDIO
TITLE “Change Of Ideas”
PERFORMER “Bad Religion”
FLAGS DCP
INDEX 01 00:00:00
FILE “Bad Religion – Flat Earth Society (1995) [FLAC]\07 – Atomic Garden.wav” WAVE
TRACK 07 AUDIO
TITLE “Atomic Garden”
PERFORMER “Bad Religion”
FLAGS DCP
INDEX 01 00:00:00
FILE “Bad Religion – Flat Earth Society (1995) [FLAC]\08 – Flat Earth Society.wav” WAVE
TRACK 08 AUDIO
TITLE “Flat Earth Society”
PERFORMER “Bad Religion”
FLAGS DCP
INDEX 01 00:00:00
FILE “Bad Religion – Flat Earth Society (1995) [FLAC]\09 – Individual.wav” WAVE
TRACK 09 AUDIO
TITLE “Individual”
PERFORMER “Bad Religion”
FLAGS DCP
INDEX 01 00:00:00
FILE “Bad Religion – Flat Earth Society (1995) [FLAC]\10 – Modern Man.wav” WAVE
TRACK 10 AUDIO
TITLE “Modern Man”
PERFORMER “Bad Religion”
FLAGS DCP
INDEX 01 00:00:00
FILE “Bad Religion – Flat Earth Society (1995) [FLAC]\11 – Mediocrity.wav” WAVE
TRACK 11 AUDIO
TITLE “Mediocrity”
PERFORMER “Bad Religion”
FLAGS DCP
INDEX 01 00:00:00
FILE “Bad Religion – Flat Earth Society (1995) [FLAC]\12 – Sanity.wav” WAVE
TRACK 12 AUDIO
TITLE “Sanity”
PERFORMER “Bad Religion”
FLAGS DCP
INDEX 01 00:00:00
FILE “Bad Religion – Flat Earth Society (1995) [FLAC]\13 – Leave Mine To Me.wav” WAVE
TRACK 13 AUDIO
TITLE “Leave Mine To Me”
PERFORMER “Bad Religion”
FLAGS DCP
INDEX 01 00:00:00
FILE “Bad Religion – Flat Earth Society (1995) [FLAC]\14 – Generator.wav” WAVE
TRACK 14 AUDIO
TITLE “Generator”
PERFORMER “Bad Religion”
FLAGS DCP
INDEX 01 00:00:00
FILE “Bad Religion – Flat Earth Society (1995) [FLAC]\15 – Yesterday.wav” WAVE
TRACK 15 AUDIO
TITLE “Yesterday”
PERFORMER “Bad Religion”
FLAGS DCP
INDEX 01 00:00:00
FILE “Bad Religion – Flat Earth Society (1995) [FLAC]\16 – Anesthesia.wav” WAVE
TRACK 16 AUDIO
TITLE “Anesthesia”
PERFORMER “Bad Religion”
FLAGS DCP
INDEX 01 00:00:00
FILE “Bad Religion – Flat Earth Society (1995) [FLAC]\17 – Lookin’ In.wav” WAVE
TRACK 17 AUDIO
TITLE “Lookin’ In”
PERFORMER “Bad Religion”
FLAGS DCP
INDEX 01 00:00:00
FILE “Bad Religion – Flat Earth Society (1995) [FLAC]\18 – 21st Century Digital Boy.wav” WAVE
TRACK 18 AUDIO
TITLE “21st Century Digital Boy”
PERFORMER “Bad Religion”
FLAGS DCP
INDEX 01 00:00:00


0

Publication author

offline 7 hours

Chaos

3
Comments: 4Publics: 3360Registration: 02-02-2019
Spread the Download

Leave a Reply

Your email address will not be published. Required fields are marked *

Enter the text from the image below
 

This site uses Akismet to reduce spam. Learn how your comment data is processed.