Bad Religion – All Ages




No Cover available

Artist: Bad Religion
Year: 1995
Genre: Punk
Notes: Discogs
Add. Notes:
Watch Songs on: YouTube
Cover incl.: Yes
Encoder: FLAC
Bitrate: ~1000 kBit/s (44.1 kHz/16 Bit/s)
Log & Cue incl.: Yes/Yes
Size: 392,6 MB
Password: “slam” (without ” “)


All Downloads/Hosters are compatible

Download 1
KatFile.com
Turbobit.net
Rapidgator.net
FileFactory.com
Download 2
KatFile.com
Turbobit.net
Rapidgator.net
FileFactory.com

Tracklist:

1 I Want To Conquer The World 2:17
2 Do What You Want 0:59
3 You Are (The Government) 1:21
4 Modern Man 1:52
5 We're Only Gonna Die 2:11
6 The Answer 3:20
7 Flat Earth Society 2:21
8 Against The Grain 2:06
9 Generator 3:17
10 Anesthesia 2:59
11 Suffer 1:47
12 Faith Alone 3:31
13 No Control 1:45
14 21st Century (Digital Boy) 2:47
15 Atomic Garden 3:10
16 No Direction 3:13
17 Automatic Man 1:38
18 Change Of Ideas 0:54
19 Sanity 2:44
20 Walk Away 1:47
21 Best For You 1:53
22 Fuck Armageddon... This Is Hell 2:11

EAC-Log, CUE-Sheed & NFO:

Click to open spoiler
Exact Audio Copy V0.99 prebeta 4 from 23. January 2008

EAC extraction logfile from 4. August 2009, 18:11

Bad Religion / All Ages

Used drive : TSSTcorpDVD-ROM SH-D162C Adapter: 4 ID: 3

Read mode : Secure
Utilize accurate stream : Yes
Defeat audio cache : Yes
Make use of C2 pointers : No

Read offset correction : 6
Overread into Lead-In and Lead-Out : No
Fill up missing offset samples with silence : Yes
Delete leading and trailing silent blocks : No
Null samples used in CRC calculations : Yes
Used interface : Native Win32 interface for Win NT & 2000
Gap handling : Appended to previous track

Used output format : User Defined Encoder
Selected bitrate : 1024 kBit/s
Quality : High
Add ID3 tag : No
Command line compressor : C:\Programme\FLAC\flac.exe
Additional command line options : -8 -T “Artist=%a” -T “Title=%t” -T “Album=%g” -T “Date=%y” -T “Tracknumber=%n” -T “Genre=%m” %s -o %d

TOC of the extracted CD

Track | Start | Length | Start sector | End sector
———————————————————
1 | 0:00.00 | 2:17.35 | 0 | 10309
2 | 2:17.35 | 0:59.58 | 10310 | 14792
3 | 3:17.18 | 1:21.42 | 14793 | 20909
4 | 4:38.60 | 1:52.73 | 20910 | 29382
5 | 6:31.58 | 2:11.65 | 29383 | 39272
6 | 8:43.48 | 3:20.47 | 39273 | 54319
7 | 12:04.20 | 2:21.15 | 54320 | 64909
8 | 14:25.35 | 2:06.48 | 64910 | 74407
9 | 16:32.08 | 3:17.55 | 74408 | 89237
10 | 19:49.63 | 2:59.70 | 89238 | 102732
11 | 22:49.58 | 1:47.35 | 102733 | 110792
12 | 24:37.18 | 3:31.47 | 110793 | 126664
13 | 28:08.65 | 1:45.28 | 126665 | 134567
14 | 29:54.18 | 2:47.70 | 134568 | 147162
15 | 32:42.13 | 3:10.47 | 147163 | 161459
16 | 35:52.60 | 3:13.70 | 161460 | 176004
17 | 39:06.55 | 1:38.70 | 176005 | 183424
18 | 40:45.50 | 0:54.13 | 183425 | 187487
19 | 41:39.63 | 2:44.25 | 187488 | 199812
20 | 44:24.13 | 1:47.55 | 199813 | 207892
21 | 46:11.68 | 1:53.65 | 207893 | 216432
22 | 48:05.58 | 2:11.60 | 216433 | 226317

Track 1

Filename C:\Dokumente und Einstellungen\Jintro\Eigene Dateien\my rips\Bad Religion – All ages\01 – I Want To Conquer The World.wav

Pre-gap length 0:00:02.00

Peak level 97.7 %
Track quality 99.9 %
Test CRC B22CA86E
Copy CRC B22CA86E
Accurately ripped (confidence 38) [39B8162D]
Copy OK

Track 2

Filename C:\Dokumente und Einstellungen\Jintro\Eigene Dateien\my rips\Bad Religion – All ages\02 – Do What You Want.wav

Peak level 81.8 %
Track quality 99.8 %
Test CRC D233B927
Copy CRC D233B927
Accurately ripped (confidence 37) [DDD0E43C]
Copy OK

Track 3

Filename C:\Dokumente und Einstellungen\Jintro\Eigene Dateien\my rips\Bad Religion – All ages\03 – You Are (The Government).wav

Pre-gap length 0:00:00.18

Peak level 97.7 %
Track quality 100.0 %
Test CRC 950641B7
Copy CRC 950641B7
Accurately ripped (confidence 37) [7B280D60]
Copy OK

Track 4

Filename C:\Dokumente und Einstellungen\Jintro\Eigene Dateien\my rips\Bad Religion – All ages\04 – Modern Man.wav

Peak level 97.7 %
Track quality 100.0 %
Test CRC 21BBBC20
Copy CRC 21BBBC20
Accurately ripped (confidence 38) [B01A3653]
Copy OK

Track 5

Filename C:\Dokumente und Einstellungen\Jintro\Eigene Dateien\my rips\Bad Religion – All ages\05 – We’re Only Gonna Die.wav

Peak level 97.7 %
Track quality 100.0 %
Test CRC 94CF1741
Copy CRC 94CF1741
Accurately ripped (confidence 38) [AB0FFE99]
Copy OK

Track 6

Filename C:\Dokumente und Einstellungen\Jintro\Eigene Dateien\my rips\Bad Religion – All ages\06 – The Answer.wav

Pre-gap length 0:00:00.08

Peak level 97.7 %
Track quality 100.0 %
Test CRC E9A85D32
Copy CRC E9A85D32
Accurately ripped (confidence 37) [DFCCED2C]
Copy OK

Track 7

Filename C:\Dokumente und Einstellungen\Jintro\Eigene Dateien\my rips\Bad Religion – All ages\07 – Flat Earth Society.wav

Pre-gap length 0:00:00.15

Peak level 97.7 %
Track quality 100.0 %
Test CRC 93B522C5
Copy CRC 93B522C5
Accurately ripped (confidence 38) [98EFA8EF]
Copy OK

Track 8

Filename C:\Dokumente und Einstellungen\Jintro\Eigene Dateien\my rips\Bad Religion – All ages\08 – Against The Grain.wav

Pre-gap length 0:00:00.20

Peak level 97.7 %
Track quality 100.0 %
Test CRC 482DF557
Copy CRC 482DF557
Accurately ripped (confidence 38) [5FAD3123]
Copy OK

Track 9

Filename C:\Dokumente und Einstellungen\Jintro\Eigene Dateien\my rips\Bad Religion – All ages\09 – Generator.wav

Peak level 97.7 %
Track quality 100.0 %
Test CRC 48B22A45
Copy CRC 48B22A45
Accurately ripped (confidence 39) [AE550685]
Copy OK

Track 10

Filename C:\Dokumente und Einstellungen\Jintro\Eigene Dateien\my rips\Bad Religion – All ages\10 – Anesthesia.wav

Peak level 97.7 %
Track quality 100.0 %
Test CRC 2E70AC7F
Copy CRC 2E70AC7F
Accurately ripped (confidence 37) [5B8ACE3C]
Copy OK

Track 11

Filename C:\Dokumente und Einstellungen\Jintro\Eigene Dateien\my rips\Bad Religion – All ages\11 – Suffer.wav

Peak level 97.7 %
Track quality 100.0 %
Test CRC 07E95DE4
Copy CRC 07E95DE4
Accurately ripped (confidence 37) [CEFBB643]
Copy OK

Track 12

Filename C:\Dokumente und Einstellungen\Jintro\Eigene Dateien\my rips\Bad Religion – All ages\12 – Faith Alone.wav

Peak level 97.7 %
Track quality 100.0 %
Test CRC 8AB79876
Copy CRC 8AB79876
Accurately ripped (confidence 37) [DFF0EF56]
Copy OK

Track 13

Filename C:\Dokumente und Einstellungen\Jintro\Eigene Dateien\my rips\Bad Religion – All ages\13 – No Control.wav

Peak level 97.7 %
Track quality 100.0 %
Test CRC 1A64E980
Copy CRC 1A64E980
Accurately ripped (confidence 36) [27F994ED]
Copy OK

Track 14

Filename C:\Dokumente und Einstellungen\Jintro\Eigene Dateien\my rips\Bad Religion – All ages\14 – 21st Century Digital Boy.wav

Peak level 97.7 %
Track quality 100.0 %
Test CRC A88C6311
Copy CRC A88C6311
Accurately ripped (confidence 38) [2101BD26]
Copy OK

Track 15

Filename C:\Dokumente und Einstellungen\Jintro\Eigene Dateien\my rips\Bad Religion – All ages\15 – Atomic Garden.wav

Pre-gap length 0:00:00.23

Peak level 97.7 %
Track quality 100.0 %
Test CRC CDA4A4A6
Copy CRC CDA4A4A6
Accurately ripped (confidence 38) [BC137E58]
Copy OK

Track 16

Filename C:\Dokumente und Einstellungen\Jintro\Eigene Dateien\my rips\Bad Religion – All ages\16 – No Direction.wav

Peak level 97.7 %
Track quality 99.9 %
Test CRC 7C592040
Copy CRC 7C592040
Accurately ripped (confidence 38) [C72E45B1]
Copy OK

Track 17

Filename C:\Dokumente und Einstellungen\Jintro\Eigene Dateien\my rips\Bad Religion – All ages\17 – Automatic Man.wav

Peak level 97.7 %
Track quality 99.8 %
Test CRC 9A37A474
Copy CRC 9A37A474
Accurately ripped (confidence 38) [5BF27180]
Copy OK

Track 18

Filename C:\Dokumente und Einstellungen\Jintro\Eigene Dateien\my rips\Bad Religion – All ages\18 – Change Of Ideas.wav

Peak level 97.7 %
Track quality 100.0 %
Test CRC CDF60C55
Copy CRC CDF60C55
Accurately ripped (confidence 36) [45FA240F]
Copy OK

Track 19

Filename C:\Dokumente und Einstellungen\Jintro\Eigene Dateien\my rips\Bad Religion – All ages\19 – Sanity.wav

Peak level 97.7 %
Track quality 100.0 %
Test CRC 0C29DF75
Copy CRC 0C29DF75
Accurately ripped (confidence 35) [8F72C59D]
Copy OK

Track 20

Filename C:\Dokumente und Einstellungen\Jintro\Eigene Dateien\my rips\Bad Religion – All ages\20 – Walk Away.wav

Peak level 97.7 %
Track quality 100.0 %
Test CRC 5D0FCAF4
Copy CRC 5D0FCAF4
Accurately ripped (confidence 36) [C9D37DAF]
Copy OK

Track 21

Filename C:\Dokumente und Einstellungen\Jintro\Eigene Dateien\my rips\Bad Religion – All ages\21 – Best For You.wav

Peak level 97.7 %
Track quality 99.9 %
Test CRC 74E91E34
Copy CRC 74E91E34
Accurately ripped (confidence 36) [C5BE10EF]
Copy OK

Track 22

Filename C:\Dokumente und Einstellungen\Jintro\Eigene Dateien\my rips\Bad Religion – All ages\22 – Fuck Armageddon….wav

Peak level 77.6 %
Track quality 100.0 %
Test CRC F01B9031
Copy CRC F01B9031
Accurately ripped (confidence 33) [F753CE66]
Copy OK

All tracks accurately ripped

No errors occurred

End of status report

REM GENRE Punk
REM DATE 1995
REM DISCID 600BC916
REM COMMENT “ExactAudioCopy v0.99pb4”
PERFORMER “Bad Religion”
TITLE “All Ages”
FILE “01 – I Want To Conquer The World.wav” WAVE
TRACK 01 AUDIO
TITLE “I Want To Conquer The World”
PERFORMER “Bad Religion”
INDEX 01 00:00:00
FILE “02 – Do What You Want.wav” WAVE
TRACK 02 AUDIO
TITLE “Do What You Want”
PERFORMER “Bad Religion”
INDEX 01 00:00:00
TRACK 03 AUDIO
TITLE “You Are (The Government)”
PERFORMER “Bad Religion”
INDEX 00 00:59:40
FILE “03 – You Are (The Government).wav” WAVE
INDEX 01 00:00:00
FILE “04 – Modern Man.wav” WAVE
TRACK 04 AUDIO
TITLE “Modern Man”
PERFORMER “Bad Religion”
INDEX 01 00:00:00
FILE “05 – We’re Only Gonna Die.wav” WAVE
TRACK 05 AUDIO
TITLE “We’re Only Gonna Die”
PERFORMER “Bad Religion”
INDEX 01 00:00:00
TRACK 06 AUDIO
TITLE “The Answer”
PERFORMER “Bad Religion”
INDEX 00 02:11:57
FILE “06 – The Answer.wav” WAVE
INDEX 01 00:00:00
TRACK 07 AUDIO
TITLE “Flat Earth Society”
PERFORMER “Bad Religion”
INDEX 00 03:20:32
FILE “07 – Flat Earth Society.wav” WAVE
INDEX 01 00:00:00
TRACK 08 AUDIO
TITLE “Against The Grain”
PERFORMER “Bad Religion”
INDEX 00 02:20:70
FILE “08 – Against The Grain.wav” WAVE
INDEX 01 00:00:00
FILE “09 – Generator.wav” WAVE
TRACK 09 AUDIO
TITLE “Generator”
PERFORMER “Bad Religion”
INDEX 01 00:00:00
FILE “10 – Anesthesia.wav” WAVE
TRACK 10 AUDIO
TITLE “Anesthesia”
PERFORMER “Bad Religion”
INDEX 01 00:00:00
FILE “11 – Suffer.wav” WAVE
TRACK 11 AUDIO
TITLE “Suffer”
PERFORMER “Bad Religion”
INDEX 01 00:00:00
FILE “12 – Faith Alone.wav” WAVE
TRACK 12 AUDIO
TITLE “Faith Alone”
PERFORMER “Bad Religion”
INDEX 01 00:00:00
FILE “13 – No Control.wav” WAVE
TRACK 13 AUDIO
TITLE “No Control”
PERFORMER “Bad Religion”
INDEX 01 00:00:00
FILE “14 – 21st Century Digital Boy.wav” WAVE
TRACK 14 AUDIO
TITLE “21st Century Digital Boy”
PERFORMER “Bad Religion”
INDEX 01 00:00:00
TRACK 15 AUDIO
TITLE “Atomic Garden”
PERFORMER “Bad Religion”
INDEX 00 02:47:47
FILE “15 – Atomic Garden.wav” WAVE
INDEX 01 00:00:00
FILE “16 – No Direction.wav” WAVE
TRACK 16 AUDIO
TITLE “No Direction”
PERFORMER “Bad Religion”
INDEX 01 00:00:00
FILE “17 – Automatic Man.wav” WAVE
TRACK 17 AUDIO
TITLE “Automatic Man”
PERFORMER “Bad Religion”
INDEX 01 00:00:00
FILE “18 – Change Of Ideas.wav” WAVE
TRACK 18 AUDIO
TITLE “Change Of Ideas”
PERFORMER “Bad Religion”
INDEX 01 00:00:00
FILE “19 – Sanity.wav” WAVE
TRACK 19 AUDIO
TITLE “Sanity”
PERFORMER “Bad Religion”
INDEX 01 00:00:00
FILE “20 – Walk Away.wav” WAVE
TRACK 20 AUDIO
TITLE “Walk Away”
PERFORMER “Bad Religion”
INDEX 01 00:00:00
FILE “21 – Best For You.wav” WAVE
TRACK 21 AUDIO
TITLE “Best For You”
PERFORMER “Bad Religion”
INDEX 01 00:00:00
FILE “22 – Fuck Armageddon….wav” WAVE
TRACK 22 AUDIO
TITLE “Fuck Armageddon…”
PERFORMER “Bad Religion”
INDEX 01 00:00:00


Leave a Reply

Your email address will not be published. Required fields are marked *

Enter the text from the image below
 

This site uses Akismet to reduce spam. Learn how your comment data is processed.