Backyard Babies – Sliver & Gold




Artist: Backyard Babies
Year: 2019
Genre: Punk
Notes: Discogs
Add. Notes:
Cover incl.: Yes
Encoder: FLAC
Bitrate: ~1000 kBit/s (44.1 kHz/16 Bit/s)
Log & Cue incl.: Yes
Size: 368,36 MB
Password: “slam” (without ” “)


All Downloads/Hosters are compatible

Download 1
Turbobit.net
Rapidgator.net
KatFile.com
UploadRar.com
Download 2
Turbobit.net
Rapidgator.net
KatFile.com
UploadRar.com
Download 3
Turbobit.net
Rapidgator.net
KatFile.com
UploadRar.com

Tracklist:

1. Good Morning Midnight
2. Simple Being Sold
3. Shovin' Rocks
4. Ragged Flag
5. Yes To All No
6. Bad Seeds
7. 44 Undead
8. Sliver & Gold
9. Day Late In My Dollar Shorts
10. Laugh Now Cry Later
11. Th1rt3en Or Nothing (Acoustic - Live In Studio)
12. A Song For The Outcast (Acoustic - Live In Studio)
13. Highlights (Acoustic - Live In Studio)
14. Star War (Acoustic - Live In Studio)
15. Nomadic (Acoustic - Live In Studio)

EAC-Log, CUE-Sheed & NFO:

Click to open spoiler
X Lossless Decoder version 20170729 (150.3)

XLD extraction logfile from 2019-03-02 13:15:41 +0100

Backyard Babies / Sliver & Gold

Used drive : HL-DT-ST BD-RE BP55EB40 (revision 1.00)
Media type : Pressed CD

Ripper mode : XLD Secure Ripper
Disable audio cache : OK for the drive with a cache less than 1375KiB
Make use of C2 pointers : NO
Read offset correction : 6
Max retry count : 20
Gap status : Analyzed, Appended (except HTOA)

TOC of the extracted CD
Track | Start | Length | Start sector | End sector
———————————————————
1 | 00:00:00 | 02:58:38 | 0 | 13387
2 | 02:58:38 | 02:49:43 | 13388 | 26105
3 | 05:48:06 | 03:19:41 | 26106 | 41071
4 | 09:07:47 | 03:19:21 | 41072 | 56017
5 | 12:26:68 | 03:08:27 | 56018 | 70144
6 | 15:35:20 | 03:48:62 | 70145 | 87306
7 | 19:24:07 | 03:23:37 | 87307 | 102568
8 | 22:47:44 | 03:14:57 | 102569 | 117175
9 | 26:02:26 | 02:47:01 | 117176 | 129701
10 | 28:49:27 | 06:15:04 | 129702 | 157830
11 | 35:04:31 | 04:00:47 | 157831 | 175877
12 | 39:05:03 | 04:08:30 | 175878 | 194507
13 | 43:13:33 | 03:30:40 | 194508 | 210297
14 | 46:43:73 | 03:16:52 | 210298 | 225049
15 | 50:00:50 | 04:25:29 | 225050 | 244953

AccurateRip Summary
Disc not found in AccurateRip DB.

All Tracks
Album gain : -9.57 dB
Peak : 1.000000
Statistics
Read error : 0
Jitter error (maybe fixed) : 0
Retry sector count : 0
Damaged sector count : 0

Track 01
Filename : /Users/stefan/Music/Backyard Babies {2019} Sliver & Gold [FLAC]/01 – Good Morning Midnight.flac
/Users/stefan/Music/Backyard Babies {2019} Sliver & Gold [MP3-V0]/01 – Good Morning Midnight.mp3
Pre-gap length : 00:02:00

Track gain : -9.75 dB
Peak : 1.000000
CRC32 hash (test run) : 30BCFBA5
CRC32 hash : 30BCFBA5
CRC32 hash (skip zero) : 8575B35B
AccurateRip v1 signature : D44AD2A6
AccurateRip v2 signature : 779F0911
->Track not present in AccurateRip database.
Statistics
Read error : 0
Jitter error (maybe fixed) : 0
Retry sector count : 0
Damaged sector count : 0

Track 02
Filename : /Users/stefan/Music/Backyard Babies {2019} Sliver & Gold [FLAC]/02 – Simple Being Sold.flac
/Users/stefan/Music/Backyard Babies {2019} Sliver & Gold [MP3-V0]/02 – Simple Being Sold.mp3

Track gain : -9.52 dB
Peak : 0.973694
CRC32 hash (test run) : 3C011D70
CRC32 hash : 3C011D70
CRC32 hash (skip zero) : 53A41114
AccurateRip v1 signature : 8F8A4941
AccurateRip v2 signature : 303DF711
->Track not present in AccurateRip database.
Statistics
Read error : 0
Jitter error (maybe fixed) : 0
Retry sector count : 0
Damaged sector count : 0

Track 03
Filename : /Users/stefan/Music/Backyard Babies {2019} Sliver & Gold [FLAC]/03 – Shovin’ Rocks.flac
/Users/stefan/Music/Backyard Babies {2019} Sliver & Gold [MP3-V0]/03 – Shovin’ Rocks.mp3

Track gain : -10.51 dB
Peak : 0.919769
CRC32 hash (test run) : F2524EDD
CRC32 hash : F2524EDD
CRC32 hash (skip zero) : A4D2BECE
AccurateRip v1 signature : B49CF18E
AccurateRip v2 signature : 5F54C6AF
->Track not present in AccurateRip database.
Statistics
Read error : 0
Jitter error (maybe fixed) : 0
Retry sector count : 0
Damaged sector count : 0

Track 04
Filename : /Users/stefan/Music/Backyard Babies {2019} Sliver & Gold [FLAC]/04 – Ragged Flag.flac
/Users/stefan/Music/Backyard Babies {2019} Sliver & Gold [MP3-V0]/04 – Ragged Flag.mp3

Track gain : -9.37 dB
Peak : 0.942657
CRC32 hash (test run) : 37031384
CRC32 hash : 37031384
CRC32 hash (skip zero) : 21E5742A
AccurateRip v1 signature : 6AB16147
AccurateRip v2 signature : 3CCC6A6F
->Track not present in AccurateRip database.
Statistics
Read error : 0
Jitter error (maybe fixed) : 0
Retry sector count : 0
Damaged sector count : 0

Track 05
Filename : /Users/stefan/Music/Backyard Babies {2019} Sliver & Gold [FLAC]/05 – Yes to All No.flac
/Users/stefan/Music/Backyard Babies {2019} Sliver & Gold [MP3-V0]/05 – Yes to All No.mp3

Track gain : -9.47 dB
Peak : 1.000000
CRC32 hash (test run) : 07AE8FCB
CRC32 hash : 07AE8FCB
CRC32 hash (skip zero) : 754BA0B7
AccurateRip v1 signature : C1B62268
AccurateRip v2 signature : 4C4E9B68
->Track not present in AccurateRip database.
Statistics
Read error : 0
Jitter error (maybe fixed) : 0
Retry sector count : 0
Damaged sector count : 0

Track 06
Filename : /Users/stefan/Music/Backyard Babies {2019} Sliver & Gold [FLAC]/06 – Bad Seeds.flac
/Users/stefan/Music/Backyard Babies {2019} Sliver & Gold [MP3-V0]/06 – Bad Seeds.mp3

Track gain : -8.82 dB
Peak : 0.998108
CRC32 hash (test run) : 3EC71784
CRC32 hash : 3EC71784
CRC32 hash (skip zero) : E2F14A15
AccurateRip v1 signature : 72397F69
AccurateRip v2 signature : F7195A00
->Track not present in AccurateRip database.
Statistics
Read error : 0
Jitter error (maybe fixed) : 0
Retry sector count : 0
Damaged sector count : 0

Track 07
Filename : /Users/stefan/Music/Backyard Babies {2019} Sliver & Gold [FLAC]/07 – 44 Undead.flac
/Users/stefan/Music/Backyard Babies {2019} Sliver & Gold [MP3-V0]/07 – 44 Undead.mp3

Track gain : -8.99 dB
Peak : 1.000000
CRC32 hash (test run) : E7FC10D9
CRC32 hash : E7FC10D9
CRC32 hash (skip zero) : B9D4AAB3
AccurateRip v1 signature : 98045306
AccurateRip v2 signature : F9A21993
->Track not present in AccurateRip database.
Statistics
Read error : 0
Jitter error (maybe fixed) : 0
Retry sector count : 0
Damaged sector count : 0

Track 08
Filename : /Users/stefan/Music/Backyard Babies {2019} Sliver & Gold [FLAC]/08 – Sliver & Gold.flac
/Users/stefan/Music/Backyard Babies {2019} Sliver & Gold [MP3-V0]/08 – Sliver & Gold.mp3

Track gain : -9.98 dB
Peak : 1.000000
CRC32 hash (test run) : 515E9BC2
CRC32 hash : 515E9BC2
CRC32 hash (skip zero) : 4216D80E
AccurateRip v1 signature : 189559A1
AccurateRip v2 signature : A064E93B
->Track not present in AccurateRip database.
Statistics
Read error : 0
Jitter error (maybe fixed) : 0
Retry sector count : 0
Damaged sector count : 0

Track 09
Filename : /Users/stefan/Music/Backyard Babies {2019} Sliver & Gold [FLAC]/09 – Day Late in My Dollar Shorts.flac
/Users/stefan/Music/Backyard Babies {2019} Sliver & Gold [MP3-V0]/09 – Day Late in My Dollar Shorts.mp3

Track gain : -9.86 dB
Peak : 0.952209
CRC32 hash (test run) : 180BA796
CRC32 hash : 180BA796
CRC32 hash (skip zero) : 208C248A
AccurateRip v1 signature : EDE9D073
AccurateRip v2 signature : D0E9874D
->Track not present in AccurateRip database.
Statistics
Read error : 0
Jitter error (maybe fixed) : 0
Retry sector count : 0
Damaged sector count : 0

Track 10
Filename : /Users/stefan/Music/Backyard Babies {2019} Sliver & Gold [FLAC]/10 – Laugh Now Cry Later.flac
/Users/stefan/Music/Backyard Babies {2019} Sliver & Gold [MP3-V0]/10 – Laugh Now Cry Later.mp3

Track gain : -7.34 dB
Peak : 0.914368
CRC32 hash (test run) : 714D344D
CRC32 hash : 714D344D
CRC32 hash (skip zero) : C7DD6918
AccurateRip v1 signature : E5D75BB1
AccurateRip v2 signature : 013A4AD2
->Track not present in AccurateRip database.
Statistics
Read error : 0
Jitter error (maybe fixed) : 0
Retry sector count : 0
Damaged sector count : 0

Track 11
Filename : /Users/stefan/Music/Backyard Babies {2019} Sliver & Gold [FLAC]/11 – Th1rt3en or Nothing (Acoustic – Live in the Studio).flac
/Users/stefan/Music/Backyard Babies {2019} Sliver & Gold [MP3-V0]/11 – Th1rt3en or Nothing (Acoustic – Live in the Studio).mp3

Track gain : -8.90 dB
Peak : 1.000000
CRC32 hash (test run) : 36527CB2
CRC32 hash : 36527CB2
CRC32 hash (skip zero) : 837B5C9C
AccurateRip v1 signature : 96FDFC84
AccurateRip v2 signature : E5B2AABA
->Track not present in AccurateRip database.
Statistics
Read error : 0
Jitter error (maybe fixed) : 0
Retry sector count : 0
Damaged sector count : 0

Track 12
Filename : /Users/stefan/Music/Backyard Babies {2019} Sliver & Gold [FLAC]/12 – A Song for the Outcast (Acoustic – Live in the Studio).flac
/Users/stefan/Music/Backyard Babies {2019} Sliver & Gold [MP3-V0]/12 – A Song for the Outcast (Acoustic – Live in the Studio).mp3

Track gain : -9.61 dB
Peak : 1.000000
CRC32 hash (test run) : 43F7D269
CRC32 hash : 43F7D269
CRC32 hash (skip zero) : 1CE04ECE
AccurateRip v1 signature : D7AB4F4F
AccurateRip v2 signature : 2BE087BB
->Track not present in AccurateRip database.
Statistics
Read error : 0
Jitter error (maybe fixed) : 0
Retry sector count : 0
Damaged sector count : 0

Track 13
Filename : /Users/stefan/Music/Backyard Babies {2019} Sliver & Gold [FLAC]/13 – Highlights (Acoustic – Live in the Studio).flac
/Users/stefan/Music/Backyard Babies {2019} Sliver & Gold [MP3-V0]/13 – Highlights (Acoustic – Live in the Studio).mp3

Track gain : -9.60 dB
Peak : 1.000000
CRC32 hash (test run) : F5923C36
CRC32 hash : F5923C36
CRC32 hash (skip zero) : 8C754D87
AccurateRip v1 signature : 5768CC86
AccurateRip v2 signature : 7FA7EF00
->Track not present in AccurateRip database.
Statistics
Read error : 0
Jitter error (maybe fixed) : 0
Retry sector count : 0
Damaged sector count : 0

Track 14
Filename : /Users/stefan/Music/Backyard Babies {2019} Sliver & Gold [FLAC]/14 – Star War (Acoustic – Live in the Studio).flac
/Users/stefan/Music/Backyard Babies {2019} Sliver & Gold [MP3-V0]/14 – Star War (Acoustic – Live in the Studio).mp3

Track gain : -10.96 dB
Peak : 1.000000
CRC32 hash (test run) : C28C935A
CRC32 hash : C28C935A
CRC32 hash (skip zero) : 2E2F3336
AccurateRip v1 signature : 876AB918
AccurateRip v2 signature : 8B9B49FC
->Track not present in AccurateRip database.
Statistics
Read error : 0
Jitter error (maybe fixed) : 0
Retry sector count : 0
Damaged sector count : 0

Track 15
Filename : /Users/stefan/Music/Backyard Babies {2019} Sliver & Gold [FLAC]/15 – Nomadic (Acoustic – Live in the Studio).flac
/Users/stefan/Music/Backyard Babies {2019} Sliver & Gold [MP3-V0]/15 – Nomadic (Acoustic – Live in the Studio).mp3

Track gain : -8.98 dB
Peak : 1.000000
CRC32 hash (test run) : DB612A52
CRC32 hash : DB612A52
CRC32 hash (skip zero) : C7EDC666
AccurateRip v1 signature : FB1C4722
AccurateRip v2 signature : 90817F30
->Track not present in AccurateRip database.
Statistics
Read error : 0
Jitter error (maybe fixed) : 0
Retry sector count : 0
Damaged sector count : 0

No errors occurred

End of status report

—–BEGIN XLD SIGNATURE—–
mK7bLK7aywgCesuHN6Z1xD14YF5Q3uMOkfRqtvghWeHZei46K2xv8z_GnlxnZf__uF4bKSqWWpfnakVXBgnLksF9.CnWwIJkErtGzQS
—–END XLD SIGNATURE—–

TITLE “Sliver & Gold”
PERFORMER “Backyard Babies”
REM GENRE “Punk Rock”
REM DATE “2019”
REM DISCID CA0CC20F
REM REPLAYGAIN_ALBUM_GAIN -9.57 dB
REM REPLAYGAIN_ALBUM_PEAK 1.000000
FILE “01 – Good Morning Midnight.flac” WAVE
TRACK 01 AUDIO
TITLE “Good Morning Midnight”
ISRC GBDHC1804002
REM REPLAYGAIN_TRACK_GAIN -9.75 dB
REM REPLAYGAIN_TRACK_PEAK 1.000000
INDEX 01 00:00:00
FILE “02 – Simple Being Sold.flac” WAVE
TRACK 02 AUDIO
TITLE “Simple Being Sold”
ISRC GBDHC1804003
REM REPLAYGAIN_TRACK_GAIN -9.52 dB
REM REPLAYGAIN_TRACK_PEAK 0.973694
INDEX 01 00:00:00
FILE “03 – Shovin’ Rocks.flac” WAVE
TRACK 03 AUDIO
TITLE “Shovin’ Rocks”
ISRC GBDHC1804001
REM REPLAYGAIN_TRACK_GAIN -10.51 dB
REM REPLAYGAIN_TRACK_PEAK 0.919769
INDEX 01 00:00:00
FILE “04 – Ragged Flag.flac” WAVE
TRACK 04 AUDIO
TITLE “Ragged Flag”
ISRC GBDHC1804004
REM REPLAYGAIN_TRACK_GAIN -9.37 dB
REM REPLAYGAIN_TRACK_PEAK 0.942657
INDEX 01 00:00:00
FILE “05 – Yes to All No.flac” WAVE
TRACK 05 AUDIO
TITLE “Yes to All No”
ISRC GBDHC1804005
REM REPLAYGAIN_TRACK_GAIN -9.47 dB
REM REPLAYGAIN_TRACK_PEAK 1.000000
INDEX 01 00:00:00
FILE “06 – Bad Seeds.flac” WAVE
TRACK 06 AUDIO
TITLE “Bad Seeds”
ISRC GBDHC1804006
REM REPLAYGAIN_TRACK_GAIN -8.82 dB
REM REPLAYGAIN_TRACK_PEAK 0.998108
INDEX 01 00:00:00
FILE “07 – 44 Undead.flac” WAVE
TRACK 07 AUDIO
TITLE “44 Undead”
ISRC GBDHC1804007
REM REPLAYGAIN_TRACK_GAIN -8.99 dB
REM REPLAYGAIN_TRACK_PEAK 1.000000
INDEX 01 00:00:00
FILE “08 – Sliver & Gold.flac” WAVE
TRACK 08 AUDIO
TITLE “Sliver & Gold”
ISRC GBDHC1804008
REM REPLAYGAIN_TRACK_GAIN -9.98 dB
REM REPLAYGAIN_TRACK_PEAK 1.000000
INDEX 01 00:00:00
FILE “09 – Day Late in My Dollar Shorts.flac” WAVE
TRACK 09 AUDIO
TITLE “Day Late in My Dollar Shorts”
ISRC GBDHC1804009
REM REPLAYGAIN_TRACK_GAIN -9.86 dB
REM REPLAYGAIN_TRACK_PEAK 0.952209
INDEX 01 00:00:00
FILE “10 – Laugh Now Cry Later.flac” WAVE
TRACK 10 AUDIO
TITLE “Laugh Now Cry Later”
ISRC GBDHC1804010
REM REPLAYGAIN_TRACK_GAIN -7.34 dB
REM REPLAYGAIN_TRACK_PEAK 0.914368
INDEX 01 00:00:00
FILE “11 – Th1rt3en or Nothing (Acoustic – Live in the Studio).flac” WAVE
TRACK 11 AUDIO
TITLE “Th1rt3en or Nothing (Acoustic – Live in the Studio)”
ISRC GBDHC1804011
REM REPLAYGAIN_TRACK_GAIN -8.90 dB
REM REPLAYGAIN_TRACK_PEAK 1.000000
INDEX 01 00:00:00
FILE “12 – A Song for the Outcast (Acoustic – Live in the Studio).flac” WAVE
TRACK 12 AUDIO
TITLE “A Song for the Outcast (Acoustic – Live in the Studio)”
ISRC GBDHC1804012
REM REPLAYGAIN_TRACK_GAIN -9.61 dB
REM REPLAYGAIN_TRACK_PEAK 1.000000
INDEX 01 00:00:00
FILE “13 – Highlights (Acoustic – Live in the Studio).flac” WAVE
TRACK 13 AUDIO
TITLE “Highlights (Acoustic – Live in the Studio)”
ISRC GBDHC1804013
REM REPLAYGAIN_TRACK_GAIN -9.60 dB
REM REPLAYGAIN_TRACK_PEAK 1.000000
INDEX 01 00:00:00
FILE “14 – Star War (Acoustic – Live in the Studio).flac” WAVE
TRACK 14 AUDIO
TITLE “Star War (Acoustic – Live in the Studio)”
ISRC GBDHC1804014
REM REPLAYGAIN_TRACK_GAIN -10.96 dB
REM REPLAYGAIN_TRACK_PEAK 1.000000
INDEX 01 00:00:00
FILE “15 – Nomadic (Acoustic – Live in the Studio).flac” WAVE
TRACK 15 AUDIO
TITLE “Nomadic (Acoustic – Live in the Studio)”
ISRC GBDHC1804015
REM REPLAYGAIN_TRACK_GAIN -8.98 dB
REM REPLAYGAIN_TRACK_PEAK 1.000000
INDEX 01 00:00:00


Leave a Reply

Your email address will not be published. Required fields are marked *

This site uses Akismet to reduce spam. Learn how your comment data is processed.