Avril Lavigne – Under My Skin (Japanese Special Edition)




No Cover available


Artist: Avril Lavigne
Year: 2004
Genre: Rock
Notes: Discogs
Add. Notes: Japanese Special Edition
Watch Songs on: YouTube
Cover incl.: Yes
Encoder: FLAC
Bitrate: ~1000 kBit/s (44.1 kHz/16 Bit/s)
Log & Cue incl.: Yes/Yes
Size: 445 MB
Password: “slam” (without ” “)


All Downloads/Hosters are compatible

Download 1
KatFile.com
Turbobit.net
Rapidgator.net
FileFactory.com
Download 2
KatFile.com
Turbobit.net
Rapidgator.net
FileFactory.com

Tracklist:

1 Take Me Away 2:57
2 Together 3:14
3 Don't Tell Me 3:22
4 He Wasn't 2:57
5 How Does It Feel 3:45
6 My Happy Ending 4:02
7 Nobody's Home 3:31
8 Forgotten 3:16
9 Who Knows 3:30
10 Fall To Pieces 3:28
11 Freak Out 3:12
12 Slipped Away 3:32
13 I Always Get What I Want 2:33
14 Nobody's Home (Live Acoustic) 3:38

Bonus Live Tracks
15 Nobody's Home 3:20
16 Take Me Away 2:55
17 He Wasn't 3:13
18 Tomorrow 3:35

EAC-Log, CUE-Sheed & NFO:

Click to open spoiler
Exact Audio Copy V0.99 prebeta 4 from 23. January 2008

Отчёт EAC об извлечении, выполненном 31. января 2010, 22:29

Avril Lavigne / Under My Skin (Special Edition)

Дисковод: Optiarc DVD RW AD-7200S Adapter: 3 ID: 0

Режим чтения : Достоверность
Использование точного потока : Да
Отключение кэша аудио : Да
Использование указателей C2 : Нет

Коррекция смещения при чтении : 48
Способность читать области Lead-in и Lead-out : Нет
Заполнение пропущенных сэмплов тишиной : Да
Удаление блоков с тишиной в начале и конце : Нет
При вычислениях CRC использовались нулевые сэмплы : Да
Интерфейс : Встроенный Win32-интерфейс для Win NT/2000
Обработка зазоров : Добавлено к предыдущему треку

Выходной формат : Пользовательский кодировщик
Выбранный битрейт : 1024 kBit/s
Качество : Высокий
Добавление ID3-тэга : Нет
Утилита сжатия : C:\Program Files\FLAC\flac.exe
Дополнительные параметры : -8 -V -T “ARTIST=%a” -T “TITLE=%t” -T “ALBUM=%g” -T “DATE=%y” -T “TRACKNUMBER=%n” -T “GENRE=%m” -T “COMMENT=EAC Test & Copy” %s

TOC извлечённого CD

Трек | Старт | Длительность | Начальный сектор | Конечный сектор
———————————————————————
1 | 0:00.00 | 2:58.15 | 0 | 13364
2 | 2:58.15 | 3:14.40 | 13365 | 27954
3 | 6:12.55 | 3:22.05 | 27955 | 43109
4 | 9:34.60 | 2:59.55 | 43110 | 56589
5 | 12:34.40 | 3:44.70 | 56590 | 73459
6 | 16:19.35 | 4:02.30 | 73460 | 91639
7 | 20:21.65 | 3:32.40 | 91640 | 107579
8 | 23:54.30 | 3:17.10 | 107580 | 122364
9 | 27:11.40 | 3:29.52 | 122365 | 138091
10 | 30:41.17 | 3:28.53 | 138092 | 153744
11 | 34:09.70 | 3:13.25 | 153745 | 168244
12 | 37:23.20 | 3:34.40 | 168245 | 184334
13 | 40:57.60 | 2:33.22 | 184335 | 195831
14 | 43:31.07 | 3:41.33 | 195832 | 212439
15 | 47:12.40 | 3:24.10 | 212440 | 227749
16 | 50:36.50 | 2:58.50 | 227750 | 241149
17 | 53:35.25 | 3:16.35 | 241150 | 255884
18 | 56:51.60 | 3:35.02 | 255885 | 272011

Трек 1

Имя файла E:\01._Take_Me_Away.wav

Длина предзазора 0:00:02.00

Пиковый уровень 100.0 %
Качество трека 100.0 %
CRC теста C5C9A8F8
CRC копии C5C9A8F8
Точное извлечение (достоверность 2) [205C3EB3]
Копирование… OK

Трек 2

Имя файла E:\02._Together.wav

Пиковый уровень 100.0 %
Качество трека 100.0 %
CRC теста D85F1996
CRC копии D85F1996
Точное извлечение (достоверность 2) [7671D7F4]
Копирование… OK

Трек 3

Имя файла E:\03._Don’t_Tell_Me.wav

Пиковый уровень 100.0 %
Качество трека 100.0 %
CRC теста EABFB1AC
CRC копии EABFB1AC
Точное извлечение (достоверность 2) [115F5BF8]
Копирование… OK

Трек 4

Имя файла E:\04._He_Wasn’t.wav

Пиковый уровень 100.0 %
Качество трека 100.0 %
CRC теста 9EDB8CA0
CRC копии 9EDB8CA0
Точное извлечение (достоверность 2) [0796D178]
Копирование… OK

Трек 5

Имя файла E:\05._How_Does_It_Feel.wav

Длина предзазора 0:00:00.72

Пиковый уровень 100.0 %
Качество трека 100.0 %
CRC теста 9BDCD9F2
CRC копии 9BDCD9F2
Точное извлечение (достоверность 2) [362D09F7]
Копирование… OK

Трек 6

Имя файла E:\06._My_Happy_Ending.wav

Пиковый уровень 100.0 %
Качество трека 99.9 %
CRC теста 39D03068
CRC копии 39D03068
Точное извлечение (достоверность 2) [926EEC98]
Копирование… OK

Трек 7

Имя файла E:\07._Nobody’s_Home.wav

Пиковый уровень 100.0 %
Качество трека 99.9 %
CRC теста 3B1529DD
CRC копии 3B1529DD
Точное извлечение (достоверность 2) [706B9B59]
Копирование… OK

Трек 8

Имя файла E:\08._Forgotten.wav

Пиковый уровень 98.7 %
Качество трека 100.0 %
CRC теста 01B89A14
CRC копии 01B89A14
Точное извлечение (достоверность 2) [F6B2967E]
Копирование… OK

Трек 9

Имя файла E:\09._Who_Knows.wav

Пиковый уровень 100.0 %
Качество трека 100.0 %
CRC теста B47BAED5
CRC копии B47BAED5
Точное извлечение (достоверность 2) [C8011F00]
Копирование… OK

Трек 10

Имя файла E:\10._Fall_To_Pieces.wav

Пиковый уровень 100.0 %
Качество трека 100.0 %
CRC теста 75CF3C3D
CRC копии 75CF3C3D
Точное извлечение (достоверность 2) [13782FEB]
Копирование… OK

Трек 11

Имя файла E:\11._Freak_Out.wav

Пиковый уровень 100.0 %
Качество трека 100.0 %
CRC теста 7ABE940E
CRC копии 7ABE940E
Точное извлечение (достоверность 2) [873F9428]
Копирование… OK

Трек 12

Имя файла E:\12._Slipped_Away.wav

Длина предзазора 0:00:01.02

Пиковый уровень 99.9 %
Качество трека 99.9 %
CRC теста BDF9F494
CRC копии BDF9F494
Точное извлечение (достоверность 2) [09AFC2C4]
Копирование… OK

Трек 13

Имя файла E:\13._I_Always_Get_What_I_Want.wav

Длина предзазора 0:00:01.42

Пиковый уровень 100.0 %
Качество трека 100.0 %
CRC теста 50C79513
CRC копии 50C79513
Точное извлечение (достоверность 2) [8501870B]
Копирование… OK

Трек 14

Имя файла E:\14._Nobody’s_Home_(Live_Acoustic).wav

Длина предзазора 0:00:01.71

Пиковый уровень 82.6 %
Качество трека 100.0 %
CRC теста 4C7FD957
CRC копии 4C7FD957
Точное извлечение (достоверность 2) [AE588682]
Копирование… OK

Трек 15

Имя файла E:\15._Nobody’s_Home_(Live).wav

Длина предзазора 0:00:02.59

Пиковый уровень 98.8 %
Качество трека 100.0 %
CRC теста 19D2D0BF
CRC копии 19D2D0BF
Точное извлечение (достоверность 2) [8A73124C]
Копирование… OK

Трек 16

Имя файла E:\16._Take_Me_Away_(Live).wav

Длина предзазора 0:00:03.32

Пиковый уровень 100.0 %
Качество трека 99.9 %
CRC теста 30746FF7
CRC копии 30746FF7
Точное извлечение (достоверность 2) [96E00AD3]
Копирование… OK

Трек 17

Имя файла E:\17._He_Wasn’t_(Live).wav

Длина предзазора 0:00:03.42

Пиковый уровень 98.8 %
Качество трека 100.0 %
CRC теста 7D336443
CRC копии 7D336443
Точное извлечение (достоверность 2) [CA5A9B25]
Копирование… OK

Трек 18

Имя файла E:\18._Tomorrow_(Live).wav

Длина предзазора 0:00:03.29

Пиковый уровень 91.6 %
Качество трека 100.0 %
CRC теста 813763D4
CRC копии 813763D4
Точное извлечение (достоверность 2) [0DC6BFFA]
Копирование… OK

Все треки извлечены точно

Ошибок не произошло

Конец отчёта

REM DATE 2002
REM DISCID EE0E2A12
PERFORMER “Avril Lavigne”
TITLE “Under My Skin (Special Edition)”
REM DISCNUMBER 1
REM TOTALDISCS 1
REM GENRE “Post-grunge”
FILE “01 Take Me Away.m4a” WAVE
TRACK 01 AUDIO
TITLE “Take Me Away”
PERFORMER “Avril Lavigne”
INDEX 01 00:00:00
FILE “02 Together.m4a” WAVE
TRACK 02 AUDIO
TITLE “Together”
PERFORMER “Avril Lavigne”
INDEX 01 00:00:00
FILE “03 Don’t Tell Me.m4a” WAVE
TRACK 03 AUDIO
TITLE “Don’t Tell Me”
PERFORMER “Avril Lavigne”
INDEX 01 00:00:00
FILE “04 He Wasn’t.m4a” WAVE
TRACK 04 AUDIO
TITLE “He Wasn’t”
PERFORMER “Avril Lavigne”
INDEX 01 00:00:00
TRACK 05 AUDIO
TITLE “How Does It Feel”
PERFORMER “Avril Lavigne”
INDEX 00 02:58:58
FILE “05 How Does It Feel.m4a” WAVE
INDEX 01 00:00:00
FILE “06 My Happy Ending.m4a” WAVE
TRACK 06 AUDIO
TITLE “My Happy Ending”
PERFORMER “Avril Lavigne”
INDEX 01 00:00:00
FILE “07 Nobody’s Home.m4a” WAVE
TRACK 07 AUDIO
TITLE “Nobody’s Home”
PERFORMER “Avril Lavigne”
INDEX 01 00:00:00
FILE “08 Forgotten.m4a” WAVE
TRACK 08 AUDIO
TITLE “Forgotten”
PERFORMER “Avril Lavigne”
INDEX 01 00:00:00
FILE “09 Who Knows.m4a” WAVE
TRACK 09 AUDIO
TITLE “Who Knows”
PERFORMER “Avril Lavigne”
INDEX 01 00:00:00
FILE “10 Fall to Pieces.m4a” WAVE
TRACK 10 AUDIO
TITLE “Fall to Pieces”
PERFORMER “Avril Lavigne”
INDEX 01 00:00:00
FILE “11 Freak Out.m4a” WAVE
TRACK 11 AUDIO
TITLE “Freak Out”
PERFORMER “Avril Lavigne”
INDEX 01 00:00:00
TRACK 12 AUDIO
TITLE “Slipped Away”
PERFORMER “Avril Lavigne”
INDEX 00 03:12:23
FILE “12 Slipped Away.m4a” WAVE
INDEX 01 00:00:00
TRACK 13 AUDIO
TITLE “I Always Get What I Want”
PERFORMER “Avril Lavigne”
INDEX 00 03:32:73
FILE “13 I Always Get What I Want.m4a” WAVE
INDEX 01 00:00:00
TRACK 14 AUDIO
TITLE “Nobody’s Home (Live Acoustic)”
PERFORMER “Avril Lavigne”
INDEX 00 02:31:26
FILE “14 Nobody’s Home (Live Acoustic).m4a” WAVE
INDEX 01 00:00:00
TRACK 15 AUDIO
TITLE “Nobody’s Home (Live)”
PERFORMER “Avril Lavigne”
INDEX 00 03:38:49
FILE “15 Nobody’s Home (Live).m4a” WAVE
INDEX 01 00:00:00
TRACK 16 AUDIO
TITLE “Take Me Away (Live)”
PERFORMER “Avril Lavigne”
INDEX 00 03:20:53
FILE “16 Take Me Away (Live).m4a” WAVE
INDEX 01 00:00:00
TRACK 17 AUDIO
TITLE “He Wasn’t (Live)”
PERFORMER “Avril Lavigne”
INDEX 00 02:55:08
FILE “17 He Wasn’t (Live).m4a” WAVE
INDEX 01 00:00:00
TRACK 18 AUDIO
TITLE “Tomorrow (Live)”
PERFORMER “Avril Lavigne”
INDEX 00 03:13:06
FILE “18 Tomorrow (Live).m4a” WAVE
INDEX 01 00:00:00


Leave a Reply

Your email address will not be published. Required fields are marked *

Enter the text from the image below
 

This site uses Akismet to reduce spam. Learn how your comment data is processed.