Avril Lavigne – Let Go




No Cover available

Artist: Avril Lavigne
Year: 2002
Genre: Rock
Notes: Discogs
Add. Notes:
Watch Songs on: YouTube
Cover incl.: Yes
Encoder: FLAC
Bitrate: ~1000 kBit/s (44.1 kHz/16 Bit/s)
Log & Cue incl.: Yes/Yes
Size: 357,1 MB
Password: “slam” (without ” “)


All Downloads/Hosters are compatible

Download 1
KatFile.com
Turbobit.net
Rapidgator.net
FileFactory.com
Download 2
KatFile.com
Turbobit.net
Rapidgator.net
FileFactory.com

Tracklist:

1  Losing Grip  3:53
2  Complicated  4:05
3  Sk8er Boi  3:24
4  I'm With You  3:43
5  Mobile  3:32
6  Unwanted  3:41
7  Tomorrow  3:49
8  Anything But Ordinary  4:11
9  Things I'll Never Say  3:44
10  My World  3:27
11  Nobody's Fool  3:58
12  Too Much To Ask  3:45
13  Naked  3:29

EAC-Log, CUE-Sheed & NFO:

Click to open spoiler
Exact Audio Copy V1.0 beta 3 from 29. August 2011

????? EAC ?? ??????????, ??????????? 22. ?????? 2014, 2:40

Avril Lavigne / Let Go

????????: PLEXTOR DVDR PX-810SA Adapter: 2 ID: 0

????? ?????? : ?????????????
????????????? ??????? ?????? : ??
?????????? ???? ????? : ??
????????????? ?????????? C2 : ???

????????? ???????? ??? ?????? : 48
??????????? ?????? ??????? Lead-in ? Lead-out : ???
?????????? ??????????? ??????? ??????? : ??
???????? ?????? ? ??????? ? ?????? ? ????? : ???
??? ??????????? CRC ?????????????? ??????? ?????? : ??
????????? : ?????????? Win32-????????? ??? Win NT/2000

???????? ?????? : ???????????????? ??????????
????????? ??????? : 1024 kBit/s
???????? : ???????
?????????? ID3-???? : ???
??????? ?????? : C:\Program Files (x86)\Exact Audio Copy\Flac\flac.exe
?????????????? ????????? : -V -8 -T “Genre=%genre%” -T “Artist=%artist%” -T “Title=%title%” -T “Album=%albumtitle%” -T “Date=%year%” -T “Tracknumber=%tracknr%” -T “Comment=%comment%” %source%

TOC ???????????? CD

???? | ????? | ???????????? | ????????? ?????? | ???????? ??????
———————————————————————
1 | 0:00.00 | 3:53.62 | 0 | 17536
2 | 3:53.62 | 4:04.38 | 17537 | 35874
3 | 7:58.25 | 3:24.00 | 35875 | 51174
4 | 11:22.25 | 3:43.05 | 51175 | 67904
5 | 15:05.30 | 3:31.70 | 67905 | 83799
6 | 18:37.25 | 3:41.02 | 83800 | 100376
7 | 22:18.27 | 3:48.63 | 100377 | 117539
8 | 26:07.15 | 4:11.37 | 117540 | 136401
9 | 30:18.52 | 3:43.65 | 136402 | 153191
10 | 34:02.42 | 3:27.20 | 153192 | 168736
11 | 37:29.62 | 3:57.25 | 168737 | 186536
12 | 41:27.12 | 3:45.30 | 186537 | 203441
13 | 45:12.42 | 3:28.50 | 203442 | 219091
14 | 51:13.17 | 22:44.58 | 230492 | 332849

?????????????? ????????? ?????????? ? ????????? ?? ???????

????????? ????????

??? ????? U:\MUZzON\CD\FLAC\Avril Lavigne\Let Go\Avril Lavigne – Let Go.wav

??????? ??????? 100.0 %
???????? ?????????? 7.2 X
???????? ????????? 99.9 %
CRC ????? 9387C4F1
CRC ????? 9387C4F1
???????????… OK

?????? ?? ?????????

AccurateRip: ??????

???? 1 : ????????? ????? (??????? 18) [4DA07DCB] (AR v2)
???? 2 : ????????? ????? (??????? 19) [D875BDDC] (AR v2)
???? 3 : ????????? ????? (??????? 21) [0BC20748] (AR v2)
???? 4 : ????????? ????? (??????? 19) [771997C3] (AR v2)
???? 5 : ????????? ????? (??????? 21) [3E58DD43] (AR v2)
???? 6 : ????????? ????? (??????? 21) [8B906B2F] (AR v2)
???? 7 : ????????? ????? (??????? 17) [AEA32D90] (AR v2)
???? 8 : ????????? ????? (??????? 17) [BE055609] (AR v2)
???? 9 : ????????? ????? (??????? 23) [B26390D0] (AR v2)
???? 10 : ????????? ????? (??????? 22) [92D0BF04] (AR v2)
???? 11 : ????????? ????? (??????? 17) [0E4F6C96] (AR v2)
???? 12 : ????????? ????? (??????? 16) [F273EA36] (AR v2)
???? 13 : ????????? ????? (??????? 19) [E1FC3FB2] (AR v2)

??? ????? ????????? ?????

????? ??????

==== ??????????? ????? ?????? 206E20EADBCF2C64DAB2C5859427A25051CD23B3788E40B11CFA81BC74EB5D76 ====

REM DATE 2002
REM DISCID B611560E
PERFORMER “Avril Lavigne”
TITLE “Let Go”
REM DISCNUMBER 1
REM TOTALDISCS 1
REM GENRE “Alternative rock”
FILE “01 Losing Grip.m4a” WAVE
TRACK 01 AUDIO
TITLE “Losing Grip”
PERFORMER “Avril Lavigne”
INDEX 01 00:00:00
FILE “02 Complicated.m4a” WAVE
TRACK 02 AUDIO
TITLE “Complicated”
PERFORMER “Avril Lavigne”
INDEX 01 00:00:00
FILE “03 Sk8er Boi.m4a” WAVE
TRACK 03 AUDIO
TITLE “Sk8er Boi”
PERFORMER “Avril Lavigne”
INDEX 01 00:00:00
FILE “04 I’m With You.m4a” WAVE
TRACK 04 AUDIO
TITLE “I’m With You”
PERFORMER “Avril Lavigne”
INDEX 01 00:00:00
FILE “05 Mobile.m4a” WAVE
TRACK 05 AUDIO
TITLE “Mobile”
PERFORMER “Avril Lavigne”
INDEX 01 00:00:00
FILE “06 Unwanted.m4a” WAVE
TRACK 06 AUDIO
TITLE “Unwanted”
PERFORMER “Avril Lavigne”
INDEX 01 00:00:00
FILE “07 Tomorrow.m4a” WAVE
TRACK 07 AUDIO
TITLE “Tomorrow”
PERFORMER “Avril Lavigne”
INDEX 01 00:00:00
FILE “08 Anything but Ordinary.m4a” WAVE
TRACK 08 AUDIO
TITLE “Anything but Ordinary”
PERFORMER “Avril Lavigne”
INDEX 01 00:00:00
FILE “09 Things I’ll Never Say.m4a” WAVE
TRACK 09 AUDIO
TITLE “Things I’ll Never Say”
PERFORMER “Avril Lavigne”
INDEX 01 00:00:00
FILE “10 My World.m4a” WAVE
TRACK 10 AUDIO
TITLE “My World”
PERFORMER “Avril Lavigne”
INDEX 01 00:00:00
FILE “11 Nobody’s Fool.m4a” WAVE
TRACK 11 AUDIO
TITLE “Nobody’s Fool”
PERFORMER “Avril Lavigne”
INDEX 01 00:00:00
FILE “12 Too Much to Ask.m4a” WAVE
TRACK 12 AUDIO
TITLE “Too Much to Ask”
PERFORMER “Avril Lavigne”
INDEX 01 00:00:00
FILE “13 Naked.m4a” WAVE
TRACK 13 AUDIO
TITLE “Naked”
PERFORMER “Avril Lavigne”
INDEX 01 00:00:00


Leave a Reply

Your email address will not be published. Required fields are marked *

Enter the text from the image below
 

This site uses Akismet to reduce spam. Learn how your comment data is processed.