Avril Lavigne – Let Go (Sketch Book) (Promo)




No Cover available

Artist: Avril Lavigne
Year: 2002
Genre: Rock
Notes: Discogs
Add. Notes: Promo
Watch Songs on: YouTube
Cover incl.: Yes
Encoder: FLAC
Bitrate: ~1000 kBit/s (44.1 kHz/16 Bit/s)
Log & Cue incl.: Yes/Yes
Size: 394,1 MB
Password: “slam” (without ” “)


All Downloads/Hosters are compatible

Download 1
KatFile.com
Turbobit.net
Rapidgator.net
FileFactory.com
Download 2
KatFile.com
Turbobit.net
Rapidgator.net
FileFactory.com

Tracklist:

1 Losing Grip 3:53
2 Complicated 4:05
3 Sk8er Boi 3:24
4 I'm With You 3:43
5 Mobile 3:32
6 Unwanted 3:41
7 Tomorrow 3:49
8 Anything But Ordinary 4:11
9 Things I'll Never Say 3:44
10 My World 3:27
11 Nobody's Fool 3:58
12 Too Much To Ask 3:45
13 Naked 3:29
14 Complicated (The Matrix Mix) 

EAC-Log, CUE-Sheed & NFO:

Click to open spoiler
Exact Audio Copy V0.99 prebeta 5 from 4. May 2009

EAC extraction logfile from 20. December 2009, 17:52

Lavigne, Avril / Let Go

Used drive : PLEXTOR DVDR PX-750A Adapter: 0 ID: 1

Read mode : Secure
Utilize accurate stream : Yes
Defeat audio cache : Yes
Make use of C2 pointers : No

Read offset correction : 102
Overread into Lead-In and Lead-Out : No
Fill up missing offset samples with silence : Yes
Delete leading and trailing silent blocks : No
Null samples used in CRC calculations : Yes
Used interface : Native Win32 interface for Win NT & 2000

Used output format : Internal WAV Routines
Sample format : 44.100 Hz; 16 Bit; Stereo

TOC of the extracted CD

Track | Start | Length | Start sector | End sector
———————————————————
1 | 0:00.00 | 3:53.25 | 0 | 17499
2 | 3:53.25 | 4:04.42 | 17500 | 35841
3 | 7:57.67 | 3:24.18 | 35842 | 51159
4 | 11:22.10 | 3:43.72 | 51160 | 67956
5 | 15:06.07 | 3:31.53 | 67957 | 83834
6 | 18:37.60 | 3:41.42 | 83835 | 100451
7 | 22:19.27 | 3:46.53 | 100452 | 117454
8 | 26:06.05 | 4:11.65 | 117455 | 136344
9 | 30:17.70 | 3:44.15 | 136345 | 153159
10 | 34:02.10 | 3:27.52 | 153160 | 168736
11 | 37:29.62 | 3:57.18 | 168737 | 186529
12 | 41:27.05 | 3:46.00 | 186530 | 203479
13 | 45:13.05 | 4:28.47 | 203480 | 223626
14 | 49:41.52 | 4:03.68 | 223627 | 241919

Range status and errors

Selected range

Filename I:\AUDIO LAVIGNE\Let Go Sketch book\Lavigne, Avril – Let Go.wav

Peak level 98.8 %
Range quality 100.0 %
Copy CRC 51B978E9
Copy OK

No errors occurred

End of status report

REM DATE 2002
REM DISCID CF0C990E
PERFORMER “Avril Lavigne”
TITLE “Let Go (Sketch Book)”
REM DISCNUMBER 1
REM TOTALDISCS 1
REM GENRE “Alternative rock”
FILE “01 Losing Grip.m4a” WAVE
TRACK 01 AUDIO
TITLE “Losing Grip”
PERFORMER “Avril Lavigne”
INDEX 01 00:00:00
FILE “02 Complicated.m4a” WAVE
TRACK 02 AUDIO
TITLE “Complicated”
PERFORMER “Avril Lavigne”
INDEX 01 00:00:00
FILE “03 Sk8er Boi.m4a” WAVE
TRACK 03 AUDIO
TITLE “Sk8er Boi”
PERFORMER “Avril Lavigne”
INDEX 01 00:00:00
FILE “04 I’m With You.m4a” WAVE
TRACK 04 AUDIO
TITLE “I’m With You”
PERFORMER “Avril Lavigne”
INDEX 01 00:00:00
FILE “05 Mobile.m4a” WAVE
TRACK 05 AUDIO
TITLE “Mobile”
PERFORMER “Avril Lavigne”
INDEX 01 00:00:00
FILE “06 Unwanted.m4a” WAVE
TRACK 06 AUDIO
TITLE “Unwanted”
PERFORMER “Avril Lavigne”
INDEX 01 00:00:00
TRACK 07 AUDIO
TITLE “Tomorrow”
PERFORMER “Avril Lavigne”
INDEX 00 03:40:20
FILE “07 Tomorrow.m4a” WAVE
INDEX 01 00:00:00
FILE “08 Anything But Ordinary.m4a” WAVE
TRACK 08 AUDIO
TITLE “Anything But Ordinary”
PERFORMER “Avril Lavigne”
INDEX 01 00:00:00
FILE “09 Things I’ll Never Say.m4a” WAVE
TRACK 09 AUDIO
TITLE “Things I’ll Never Say”
PERFORMER “Avril Lavigne”
INDEX 01 00:00:00
FILE “10 My World.m4a” WAVE
TRACK 10 AUDIO
TITLE “My World”
PERFORMER “Avril Lavigne”
INDEX 01 00:00:00
FILE “11 Nobody’s Fool.m4a” WAVE
TRACK 11 AUDIO
TITLE “Nobody’s Fool”
PERFORMER “Avril Lavigne”
INDEX 01 00:00:00
FILE “12 Too Much To Ask.m4a” WAVE
TRACK 12 AUDIO
TITLE “Too Much To Ask”
PERFORMER “Avril Lavigne”
INDEX 01 00:00:00
FILE “13 Naked.m4a” WAVE
TRACK 13 AUDIO
TITLE “Naked”
PERFORMER “Avril Lavigne”
INDEX 01 00:00:00
TRACK 14 AUDIO
TITLE “Complicated (The Matrix Mix)”
PERFORMER “Avril Lavigne”
INDEX 00 03:29:17
FILE “14 Complicated (The Matrix Mix).m4a” WAVE
INDEX 01 00:00:00


Leave a Reply

Your email address will not be published. Required fields are marked *

Enter the text from the image below
 

This site uses Akismet to reduce spam. Learn how your comment data is processed.