Avril Lavigne – Let Go (Limited Japanese Edition)




No Cover available

Artist: Avril Lavigne
Year: 2002
Genre: Rock
Notes: Discogs
Add. Notes: Limited Japanese Edition
Watch Songs on: YouTube
Cover incl.: Yes
Encoder: FLAC
Bitrate: ~1000 kBit/s (44.1 kHz/16 Bit/s)
Log & Cue incl.: Yes/Yes
Size: 489,8 MB
Password: “slam” (without ” “)


All Downloads/Hosters are compatible

Download 1
KatFile.com
Turbobit.net
Rapidgator.net
FileFactory.com
Download 2
KatFile.com
Turbobit.net
Rapidgator.net
FileFactory.com

Tracklist:

1 Losing Grip 3:54
2 Complicated 4:05
3 Sk8er Boi 3:24
4 I'm With You 3:43
5 Mobile 3:32
6 Unwanted 3:41
7 Tomorrow 3:49
8 Anything But Ordinary 4:11
9 Things I'll Never Say 3:44
10 My World 3:27
11 Nobody's Fool 3:57
12 Too Much To Ask 3:45
13 Naked 3:27

Bonus Track
14 Why 4:00

Special Bonus Tracks
15 Complicated (TV Track Version) 4:05
16 Sk8er Boi (TV Track Version) 3:24
17 I'm With You (TV Track Version) 3:46
18 Losing My Grip (TV Track Version) 3:53

EAC-Log, CUE-Sheed & NFO:

Click to open spoiler
Exact Audio Copy V0.99 prebeta 4 from 23. January 2008

Отчёт EAC об извлечении, выполненном 20. марта 2010, 15:52

Avril Lavigne / Let Go (Special Bonus Edition)

Дисковод: Optiarc DVD RW AD-7200S Adapter: 3 ID: 0

Режим чтения : Достоверность
Использование точного потока : Да
Отключение кэша аудио : Да
Использование указателей C2 : Нет

Коррекция смещения при чтении : 48
Способность читать области Lead-in и Lead-out : Нет
Заполнение пропущенных сэмплов тишиной : Да
Удаление блоков с тишиной в начале и конце : Нет
При вычислениях CRC использовались нулевые сэмплы : Да
Интерфейс : Встроенный Win32-интерфейс для Win NT/2000
Обработка зазоров : Добавлено к предыдущему треку

Выходной формат : Пользовательский кодировщик
Выбранный битрейт : 1024 kBit/s
Качество : Высокий
Добавление ID3-тэга : Нет
Утилита сжатия : C:\Program Files\FLAC\flac.exe
Дополнительные параметры : -8 -V -T “ARTIST=%a” -T “TITLE=%t” -T “ALBUM=%g” -T “DATE=%y” -T “TRACKNUMBER=%n” -T “GENRE=%m” -T “COMMENT=EAC Test & Copy” %s

TOC извлечённого CD

Трек | Старт | Длительность | Начальный сектор | Конечный сектор
———————————————————————
1 | 0:00.00 | 3:54.25 | 0 | 17574
2 | 3:54.25 | 4:04.37 | 17575 | 35911
3 | 7:58.62 | 3:24.00 | 35912 | 51211
4 | 11:22.62 | 3:43.13 | 51212 | 67949
5 | 15:06.00 | 3:31.62 | 67950 | 83836
6 | 18:37.62 | 3:41.00 | 83837 | 100411
7 | 22:18.62 | 3:48.65 | 100412 | 117576
8 | 26:07.52 | 4:11.38 | 117577 | 136439
9 | 30:19.15 | 3:43.62 | 136440 | 153226
10 | 34:03.02 | 3:27.23 | 153227 | 168774
11 | 37:30.25 | 3:57.25 | 168775 | 186574
12 | 41:27.50 | 3:45.40 | 186575 | 203489
13 | 45:13.15 | 3:26.45 | 203490 | 218984
14 | 48:39.60 | 4:02.65 | 218985 | 237199
15 | 52:42.50 | 4:07.07 | 237200 | 255731
16 | 56:49.57 | 3:26.55 | 255732 | 271236
17 | 60:16.37 | 3:48.08 | 271237 | 288344
18 | 64:04.45 | 3:53.55 | 288345 | 305874

Трек 1

Имя файла C:\01._Losing_Grip.wav

Длина предзазора 0:00:02.00

Пиковый уровень 99.4 %
Качество трека 100.0 %
CRC теста C1CEFB4C
CRC копии C1CEFB4C
Точное извлечение (достоверность 1) [4B7F7CA3]
Копирование… OK

Трек 2

Имя файла C:\02._Complicated.wav

Пиковый уровень 98.9 %
Качество трека 100.0 %
CRC теста 06A78945
CRC копии 06A78945
Точное извлечение (достоверность 1) [B7C3D30B]
Копирование… OK

Трек 3

Имя файла C:\03._Sk8er_Boi.wav

Пиковый уровень 99.4 %
Качество трека 100.0 %
CRC теста 4113E59A
CRC копии 4113E59A
Точное извлечение (достоверность 1) [0D052A92]
Копирование… OK

Трек 4

Имя файла C:\04._I’m_With_You.wav

Пиковый уровень 98.9 %
Качество трека 100.0 %
CRC теста 7CF76631
CRC копии 7CF76631
Точное извлечение (достоверность 1) [1F84E145]
Копирование… OK

Трек 5

Имя файла C:\05._Mobile.wav

Пиковый уровень 98.9 %
Качество трека 99.9 %
CRC теста 6D873A95
CRC копии 6D873A95
Точное извлечение (достоверность 1) [F48C4398]
Копирование… OK

Трек 6

Имя файла C:\06._Unwanted.wav

Пиковый уровень 99.4 %
Качество трека 100.0 %
CRC теста 6A519FB2
CRC копии 6A519FB2
Точное извлечение (достоверность 1) [A0AAE40C]
Копирование… OK

Трек 7

Имя файла C:\07._Tomorrow.wav

Пиковый уровень 98.9 %
Качество трека 99.9 %
CRC теста F1BF8F3B
CRC копии F1BF8F3B
Точное извлечение (достоверность 1) [9C9739A9]
Копирование… OK

Трек 8

Имя файла C:\08._Anything_But_Ordinary.wav

Пиковый уровень 98.9 %
Качество трека 99.9 %
CRC теста C9353BD4
CRC копии C9353BD4
Точное извлечение (достоверность 1) [D37DE4B5]
Копирование… OK

Трек 9

Имя файла C:\09._Things_I’ll_Never_Say.wav

Пиковый уровень 98.9 %
Качество трека 99.9 %
CRC теста 5C68D327
CRC копии 5C68D327
Точное извлечение (достоверность 1) [93BF296C]
Копирование… OK

Трек 10

Имя файла C:\10._My_World.wav

Пиковый уровень 98.9 %
Качество трека 100.0 %
CRC теста C1F1401E
CRC копии C1F1401E
Точное извлечение (достоверность 1) [8733A0C5]
Копирование… OK

Трек 11

Имя файла C:\11._Nobody’s_Fool.wav

Пиковый уровень 98.9 %
Качество трека 100.0 %
CRC теста C3E75E2A
CRC копии C3E75E2A
Точное извлечение (достоверность 1) [04F16ECF]
Копирование… OK

Трек 12

Имя файла C:\12._Too_Much_To_Ask.wav

Пиковый уровень 99.0 %
Качество трека 100.0 %
CRC теста 2BAAD0D6
CRC копии 2BAAD0D6
Точное извлечение (достоверность 1) [A52DBC0E]
Копирование… OK

Трек 13

Имя файла C:\13._Naked.wav

Пиковый уровень 98.9 %
Качество трека 100.0 %
CRC теста 21D361B8
CRC копии 21D361B8
Точное извлечение (достоверность 1) [A6C06918]
Копирование… OK

Трек 14

Имя файла C:\14._Why.wav

Пиковый уровень 83.0 %
Качество трека 100.0 %
CRC теста BBC065D8
CRC копии BBC065D8
Точное извлечение (достоверность 1) [52174B73]
Копирование… OK

Трек 15

Имя файла C:\15._Complicated_(TV_Track_Version).wav

Длина предзазора 0:00:03.00

Пиковый уровень 99.4 %
Качество трека 100.0 %
CRC теста 3FDAF6B0
CRC копии 3FDAF6B0
Точное извлечение (достоверность 1) [460B17D9]
Копирование… OK

Трек 16

Имя файла C:\16._Sk8er_Boi_(TV_Track_Version).wav

Длина предзазора 0:00:00.70

Пиковый уровень 99.4 %
Качество трека 100.0 %
CRC теста 33905848
CRC копии 33905848
Точное извлечение (достоверность 1) [68F22A37]
Копирование… OK

Трек 17

Имя файла C:\17._I’m_With_You_(TV_Track_Version).wav

Длина предзазора 0:00:01.57

Пиковый уровень 99.4 %
Качество трека 99.9 %
CRC теста AD1D07B2
CRC копии AD1D07B2
Точное извлечение (достоверность 1) [CB2B9CB4]
Копирование… OK

Трек 18

Имя файла C:\18._Losing_Grip_(TV_Track_Version).wav

Длина предзазора 0:00:00.65

Пиковый уровень 99.4 %
Качество трека 100.0 %
CRC теста 8C351A7C
CRC копии 8C351A7C
Точное извлечение (достоверность 1) [DC3A7A66]
Копирование… OK

Все треки извлечены точно

Ошибок не произошло

Конец отчёта

REM DATE 2002
REM DISCID F90FEE12
PERFORMER “Avril Lavigne”
TITLE “Let Go (Special Bonus Edition)”
REM DISCNUMBER 1
REM TOTALDISCS 1
REM GENRE “Alternative rock”
FILE “01 Losing Grip.m4a” WAVE
TRACK 01 AUDIO
TITLE “Losing Grip”
PERFORMER “Avril Lavigne”
INDEX 01 00:00:00
FILE “02 Complicated.m4a” WAVE
TRACK 02 AUDIO
TITLE “Complicated”
PERFORMER “Avril Lavigne”
INDEX 01 00:00:00
FILE “03 Sk8er Boi.m4a” WAVE
TRACK 03 AUDIO
TITLE “Sk8er Boi”
PERFORMER “Avril Lavigne”
INDEX 01 00:00:00
FILE “04 I’m With You.m4a” WAVE
TRACK 04 AUDIO
TITLE “I’m With You”
PERFORMER “Avril Lavigne”
INDEX 01 00:00:00
FILE “05 Mobile.m4a” WAVE
TRACK 05 AUDIO
TITLE “Mobile”
PERFORMER “Avril Lavigne”
INDEX 01 00:00:00
FILE “06 Unwanted.m4a” WAVE
TRACK 06 AUDIO
TITLE “Unwanted”
PERFORMER “Avril Lavigne”
INDEX 01 00:00:00
FILE “07 Tomorrow.m4a” WAVE
TRACK 07 AUDIO
TITLE “Tomorrow”
PERFORMER “Avril Lavigne”
INDEX 01 00:00:00
FILE “08 Anything but Ordinary.m4a” WAVE
TRACK 08 AUDIO
TITLE “Anything but Ordinary”
PERFORMER “Avril Lavigne”
INDEX 01 00:00:00
FILE “09 Things I’ll Never Say.m4a” WAVE
TRACK 09 AUDIO
TITLE “Things I’ll Never Say”
PERFORMER “Avril Lavigne”
INDEX 01 00:00:00
FILE “10 My World.m4a” WAVE
TRACK 10 AUDIO
TITLE “My World”
PERFORMER “Avril Lavigne”
INDEX 01 00:00:00
FILE “11 Nobody’s Fool.m4a” WAVE
TRACK 11 AUDIO
TITLE “Nobody’s Fool”
PERFORMER “Avril Lavigne”
INDEX 01 00:00:00
FILE “12 Too Much to Ask.m4a” WAVE
TRACK 12 AUDIO
TITLE “Too Much to Ask”
PERFORMER “Avril Lavigne”
INDEX 01 00:00:00
FILE “13 Naked.m4a” WAVE
TRACK 13 AUDIO
TITLE “Naked”
PERFORMER “Avril Lavigne”
INDEX 01 00:00:00
FILE “14 Why.m4a” WAVE
TRACK 14 AUDIO
TITLE “Why”
PERFORMER “Avril Lavigne”
INDEX 01 00:00:00
TRACK 15 AUDIO
TITLE “Complicated (TV Track version)”
PERFORMER “Avril Lavigne”
INDEX 00 03:59:65
FILE “15 Complicated (TV Track version).m4a” WAVE
INDEX 01 00:00:00
TRACK 16 AUDIO
TITLE “Sk8er Boi (TV Track version)”
PERFORMER “Avril Lavigne”
INDEX 00 04:06:12
FILE “16 Sk8er Boi (TV Track version).m4a” WAVE
INDEX 01 00:00:00
TRACK 17 AUDIO
TITLE “I’m With You (TV Track version)”
PERFORMER “Avril Lavigne”
INDEX 00 03:24:73
FILE “17 I’m With You (TV Track version).m4a” WAVE
INDEX 01 00:00:00
TRACK 18 AUDIO
TITLE “Losing Grip (TV Track version)”
PERFORMER “Avril Lavigne”
INDEX 00 03:47:18
FILE “18 Losing Grip (TV Track version).m4a” WAVE
INDEX 01 00:00:00


0

Publication author

offline 8 hours

Chaos

3
Comments: 4Publics: 3360Registration: 02-02-2019
Spread the Download

Leave a Reply

Your email address will not be published. Required fields are marked *

Enter the text from the image below
 

This site uses Akismet to reduce spam. Learn how your comment data is processed.