Avril Lavigne – Let Go (Australian Edition)




No Cover available

Artist: Avril Lavigne
Year: 2002
Genre: Rock
Notes: Discogs
Add. Notes: Australian Edition
Watch Songs on: YouTube
Cover incl.: Yes
Encoder: FLAC
Bitrate: ~1000 kBit/s (44.1 kHz/16 Bit/s)
Log & Cue incl.: Yes/Yes
Size: 493,1 MB
Password: “slam” (without ” “)


All Downloads/Hosters are compatible

Download 1
KatFile.com
Turbobit.net
Rapidgator.net
FileFactory.com
Download 2
KatFile.com
Turbobit.net
Rapidgator.net
FileFactory.com

Tracklist:

"Let Go"
1-1 Losing Grip 3:53
1-2 Complicated 4:05
1-3 Sk8er Boi 3:23
1-4 I'm With You 3:44
1-5 Mobile 3:31
1-6 Unwanted 3:40
1-7 Tomorrow 3:48
1-8 Anything But Ordinary 4:12
1-9 Things I'll Never Say 3:44
1-10 My World 3:27
1-11 Nobody's Fool 3:57
1-12 Too Much To Ask 3:46
1-13 Naked 3:27

Let Go Bonus Disc
2-1 Get Over It (Audio) 3:30
2-2 Why (Audio) 4:04
2-3 Unwanted (Live) (Audio) 4:02
2-4 I'm With You (Live) (Audio) 4:00
2-5 Nobody's Fool (Live) (Audio) 3:57

EAC-Log, CUE-Sheed & NFO:

Click to open spoiler
Exact Audio Copy V0.99 prebeta 4 from 23. January 2008

Отчёт EAC об извлечении, выполненном 31. января 2010, 21:28

Avril Lavigne / Let Go (Limited Edition) CD2

Дисковод: Optiarc DVD RW AD-7200S Adapter: 3 ID: 0

Режим чтения : Достоверность
Использование точного потока : Да
Отключение кэша аудио : Да
Использование указателей C2 : Нет

Коррекция смещения при чтении : 48
Способность читать области Lead-in и Lead-out : Нет
Заполнение пропущенных сэмплов тишиной : Да
Удаление блоков с тишиной в начале и конце : Нет
При вычислениях CRC использовались нулевые сэмплы : Да
Интерфейс : Встроенный Win32-интерфейс для Win NT/2000
Обработка зазоров : Добавлено к предыдущему треку

Выходной формат : Пользовательский кодировщик
Выбранный битрейт : 1024 kBit/s
Качество : Высокий
Добавление ID3-тэга : Нет
Утилита сжатия : C:\Program Files\FLAC\flac.exe
Дополнительные параметры : -8 -V -T “ARTIST=%a” -T “TITLE=%t” -T “ALBUM=%g” -T “DATE=%y” -T “TRACKNUMBER=%n” -T “GENRE=%m” -T “COMMENT=EAC Test & Copy” %s

TOC извлечённого CD

Трек | Старт | Длительность | Начальный сектор | Конечный сектор
———————————————————————
1 | 0:00.00 | 3:28.65 | 0 | 15664
2 | 3:28.65 | 4:02.30 | 15665 | 33844
3 | 7:31.20 | 4:00.60 | 33845 | 51904
4 | 11:32.05 | 3:58.57 | 51905 | 69811
5 | 15:30.62 | 3:57.68 | 69812 | 87654
6 | 22:00.55 | 31:31.56 | 99055 | 240935

Трек 1

Имя файла E:\01._Get_Over_It.wav

Длина предзазора 0:00:02.00

Пиковый уровень 98.8 %
Качество трека 99.9 %
CRC теста E2E61C32
CRC копии E2E61C32
Точное извлечение (достоверность 5) [AFBF6505]
Копирование… OK

Трек 2

Имя файла E:\02._Why.wav

Длина предзазора 0:00:01.21

Пиковый уровень 98.8 %
Качество трека 99.9 %
CRC теста D516C647
CRC копии D516C647
Точное извлечение (достоверность 5) [78CDE294]
Копирование… OK

Трек 3

Имя файла E:\03._Unwanted_(Live).wav

Длина предзазора 0:00:03.50

Пиковый уровень 98.8 %
Качество трека 100.0 %
CRC теста 22B73124
CRC копии 22B73124
Точное извлечение (достоверность 5) [187B5826]
Копирование… OK

Трек 4

Имя файла E:\04._I’m_With_You_(Live).wav

Длина предзазора 0:00:02.09

Пиковый уровень 98.8 %
Качество трека 99.9 %
CRC теста 80FBA932
CRC копии 80FBA932
Точное извлечение (достоверность 5) [A5C7B0F8]
Копирование… OK

Трек 5

Имя файла E:\05._Nobody’s_Fool_(Live).wav

Длина предзазора 0:00:03.01

Пиковый уровень 98.8 %
Качество трека 100.0 %
CRC теста 2C1EAC74
CRC копии 2C1EAC74
Точное извлечение (достоверность 5) [E528BD2F]
Копирование… OK

Все треки извлечены точно

Ошибок не произошло

Конец отчёта

Exact Audio Copy V0.99 prebeta 4 from 23. January 2008

Отчёт EAC об извлечении, выполненном 31. января 2010, 21:03

Avril Lavigne / Let Go (Limited Edition) CD1

Дисковод: Optiarc DVD RW AD-7200S Adapter: 3 ID: 0

Режим чтения : Достоверность
Использование точного потока : Да
Отключение кэша аудио : Да
Использование указателей C2 : Нет

Коррекция смещения при чтении : 48
Способность читать области Lead-in и Lead-out : Нет
Заполнение пропущенных сэмплов тишиной : Да
Удаление блоков с тишиной в начале и конце : Нет
При вычислениях CRC использовались нулевые сэмплы : Да
Интерфейс : Встроенный Win32-интерфейс для Win NT/2000
Обработка зазоров : Добавлено к предыдущему треку

Выходной формат : Пользовательский кодировщик
Выбранный битрейт : 1024 kBit/s
Качество : Высокий
Добавление ID3-тэга : Нет
Утилита сжатия : C:\Program Files\FLAC\flac.exe
Дополнительные параметры : -8 -V -T “ARTIST=%a” -T “TITLE=%t” -T “ALBUM=%g” -T “DATE=%y” -T “TRACKNUMBER=%n” -T “GENRE=%m” -T “COMMENT=EAC Test & Copy” %s

TOC извлечённого CD

Трек | Старт | Длительность | Начальный сектор | Конечный сектор
———————————————————————
1 | 0:00.00 | 3:53.57 | 0 | 17531
2 | 3:53.57 | 4:04.38 | 17532 | 35869
3 | 7:58.20 | 3:24.00 | 35870 | 51169
4 | 11:22.20 | 3:43.05 | 51170 | 67899
5 | 15:05.25 | 3:31.70 | 67900 | 83794
6 | 18:37.20 | 3:41.02 | 83795 | 100371
7 | 22:18.22 | 3:48.63 | 100372 | 117534
8 | 26:07.10 | 4:11.37 | 117535 | 136396
9 | 30:18.47 | 3:43.65 | 136397 | 153186
10 | 34:02.37 | 3:27.20 | 153187 | 168731
11 | 37:29.57 | 3:57.25 | 168732 | 186531
12 | 41:27.07 | 3:45.30 | 186532 | 203436
13 | 45:12.37 | 3:28.55 | 203437 | 219091
14 | 51:13.17 | 19:52.39 | 230492 | 319930

Трек 1

Имя файла E:\01._Losing_Grip.wav

Длина предзазора 0:00:02.00

Пиковый уровень 100.0 %
Качество трека 99.9 %
CRC теста 31CEAA08
CRC копии 31CEAA08
Точное извлечение (достоверность 19) [5DBE006D]
Копирование… OK

Трек 2

Имя файла E:\02._Complicated.wav

Пиковый уровень 100.0 %
Качество трека 100.0 %
CRC теста D003CCB2
CRC копии D003CCB2
Точное извлечение (достоверность 20) [430D5B0B]
Копирование… OK

Трек 3

Имя файла E:\03._Sk8er_Boi.wav

Пиковый уровень 100.0 %
Качество трека 100.0 %
CRC теста A64E9421
CRC копии A64E9421
Точное извлечение (достоверность 20) [9274B827]
Копирование… OK

Трек 4

Имя файла E:\04._I’m_With_You.wav

Пиковый уровень 100.0 %
Качество трека 100.0 %
CRC теста A2CDBBF1
CRC копии A2CDBBF1
Точное извлечение (достоверность 19) [1341B558]
Копирование… OK

Трек 5

Имя файла E:\05._Mobile.wav

Пиковый уровень 100.0 %
Качество трека 99.8 %
CRC теста 8B5EBDD2
CRC копии 8B5EBDD2
Точность не определена (достоверность 119) [A645C5A6], AccurateRip вернул [1DDA1EF7]
Копирование… OK

Трек 6

Имя файла E:\06._Unwanted.wav

Пиковый уровень 100.0 %
Качество трека 100.0 %
CRC теста 249E2AF7
CRC копии 249E2AF7
Точное извлечение (достоверность 19) [BD1983F0]
Копирование… OK

Трек 7

Имя файла E:\07._Tomorrow.wav

Пиковый уровень 100.0 %
Качество трека 100.0 %
CRC теста A280A764
CRC копии A280A764
Точное извлечение (достоверность 19) [A5AC7FF0]
Копирование… OK

Трек 8

Имя файла E:\08._Anything_But_Ordinary.wav

Пиковый уровень 100.0 %
Качество трека 100.0 %
CRC теста B4FE6854
CRC копии B4FE6854
Точное извлечение (достоверность 19) [D66E26F1]
Копирование… OK

Трек 9

Имя файла E:\09._Things_I’ll_Never_Say.wav

Пиковый уровень 100.0 %
Качество трека 100.0 %
CRC теста 33FEF26B
CRC копии 33FEF26B
Точное извлечение (достоверность 19) [8407F558]
Копирование… OK

Трек 10

Имя файла E:\10._My_World.wav

Пиковый уровень 99.8 %
Качество трека 100.0 %
CRC теста A718BB47
CRC копии A718BB47
Точное извлечение (достоверность 19) [8681C310]
Копирование… OK

Трек 11

Имя файла E:\11._Nobody’s_Fool.wav

Пиковый уровень 100.0 %
Качество трека 100.0 %
CRC теста 99AB1E6A
CRC копии 99AB1E6A
Точное извлечение (достоверность 19) [470F983C]
Копирование… OK

Трек 12

Имя файла E:\12._Too_Much_to_Ask.wav

Пиковый уровень 99.8 %
Качество трека 100.0 %
CRC теста E9135BCD
CRC копии E9135BCD
Точное извлечение (достоверность 19) [EBD88D67]
Копирование… OK

Трек 13

Имя файла E:\13._Naked.wav

Пиковый уровень 99.7 %
Качество трека 100.0 %
CRC теста 6A9E7CB6
CRC копии 6A9E7CB6
Точное извлечение (достоверность 19) [D84A9732]
Копирование… OK

12 трек(и) скопированы точно
1 трек(и) не удалось проверить на точность

Некоторые треки не прошли проверку на точность

Ошибок не произошло

Конец отчёта

REM DATE 2002
REM DISCID B610A90E
PERFORMER “Avril Lavigne”
TITLE “Let Go (Limited Edition)”
REM DISCNUMBER 1
REM TOTALDISCS 2
REM GENRE “Alternative rock”
FILE “01 Losing Grip.m4a” WAVE
TRACK 01 AUDIO
TITLE “Losing Grip”
PERFORMER “Avril Lavigne”
INDEX 01 00:00:00
FILE “02 Complicated.m4a” WAVE
TRACK 02 AUDIO
TITLE “Complicated”
PERFORMER “Avril Lavigne”
INDEX 01 00:00:00
FILE “03 Sk8er Boi.m4a” WAVE
TRACK 03 AUDIO
TITLE “Sk8er Boi”
PERFORMER “Avril Lavigne”
INDEX 01 00:00:00
FILE “04 I’m With You.m4a” WAVE
TRACK 04 AUDIO
TITLE “I’m With You”
PERFORMER “Avril Lavigne”
INDEX 01 00:00:00
FILE “05 Mobile.m4a” WAVE
TRACK 05 AUDIO
TITLE “Mobile”
PERFORMER “Avril Lavigne”
INDEX 01 00:00:00
FILE “06 Unwanted.m4a” WAVE
TRACK 06 AUDIO
TITLE “Unwanted”
PERFORMER “Avril Lavigne”
INDEX 01 00:00:00
FILE “07 Tomorrow.m4a” WAVE
TRACK 07 AUDIO
TITLE “Tomorrow”
PERFORMER “Avril Lavigne”
INDEX 01 00:00:00
FILE “08 Anything but Ordinary.m4a” WAVE
TRACK 08 AUDIO
TITLE “Anything but Ordinary”
PERFORMER “Avril Lavigne”
INDEX 01 00:00:00
FILE “09 Things I’ll Never Say.m4a” WAVE
TRACK 09 AUDIO
TITLE “Things I’ll Never Say”
PERFORMER “Avril Lavigne”
INDEX 01 00:00:00
FILE “10 My World.m4a” WAVE
TRACK 10 AUDIO
TITLE “My World”
PERFORMER “Avril Lavigne”
INDEX 01 00:00:00
FILE “11 Nobody’s Fool.m4a” WAVE
TRACK 11 AUDIO
TITLE “Nobody’s Fool”
PERFORMER “Avril Lavigne”
INDEX 01 00:00:00
FILE “12 Too Much to Ask.m4a” WAVE
TRACK 12 AUDIO
TITLE “Too Much to Ask”
PERFORMER “Avril Lavigne”
INDEX 01 00:00:00
FILE “13 Naked.m4a” WAVE
TRACK 13 AUDIO
TITLE “Naked”
PERFORMER “Avril Lavigne”
INDEX 01 00:00:00

REM DATE 2002
REM DISCID 3A0C8C06
PERFORMER “Avril Lavigne”
TITLE “Let Go (Limited Edition)”
REM DISCNUMBER 2
REM TOTALDISCS 2
REM GENRE “Alternative rock”
FILE “01 Get Over It.m4a” WAVE
TRACK 01 AUDIO
TITLE “Get Over It”
PERFORMER “Avril Lavigne”
INDEX 01 00:00:00
TRACK 02 AUDIO
TITLE “Why”
PERFORMER “Avril Lavigne”
INDEX 00 03:27:44
FILE “02 Why.m4a” WAVE
INDEX 01 00:00:00
TRACK 03 AUDIO
TITLE “Unwanted (Live)”
PERFORMER “Avril Lavigne”
INDEX 00 03:58:55
FILE “03 Unwanted (Live).m4a” WAVE
INDEX 01 00:00:00
TRACK 04 AUDIO
TITLE “I’m With You (Live)”
PERFORMER “Avril Lavigne”
INDEX 00 03:58:51
FILE “04 I’m With You (Live).m4a” WAVE
INDEX 01 00:00:00
TRACK 05 AUDIO
TITLE “Nobody’s Fool (Live)”
PERFORMER “Avril Lavigne”
INDEX 00 03:55:56
FILE “05 Nobody’s Fool (Live).m4a” WAVE
INDEX 01 00:00:00


Leave a Reply

Your email address will not be published. Required fields are marked *

Enter the text from the image below
 

This site uses Akismet to reduce spam. Learn how your comment data is processed.