Avril Lavigne – Head Above Water




No Cover available


Artist: Avril Lavigne
Year: 2019
Genre: Rock
Notes: Discogs
Add. Notes:
Watch Songs on: YouTube
Cover incl.: Yes
Encoder: FLAC
Bitrate: ~1000 kBit/s (44.1 kHz/16 Bit/s)
Log & Cue incl.: Yes/Yes
Size: 289,5 MB
Password: “slam” (without ” “)


All Downloads/Hosters are compatible

Download 1
KatFile.com
Turbobit.net
Rapidgator.net
FileFactory.com
Download 2
KatFile.com
Turbobit.net
Rapidgator.net
FileFactory.com

Tracklist:

1 Head Above Water 
2 Birdie 
3 I Fell In Love With The Devil 
4 Tell Me It's Over 
5 Dumb Blonde 
6 It Was In Me 
7 Souvenir 
8 Crush 
9 Goddess 
10 Bigger Wow 
11 Love Me Insane 
12 Warrior

EAC-Log, CUE-Sheed & NFO:

Click to open spoiler
Exact Audio Copy V1.3 from 2. September 2016

EAC extraction logfile from 16. February 2019, 2:50

Avril Lavigne / Head Above Water

Used drive : TSSTcorpCDDVDW SU-208FB Adapter: 1 ID: 0

Read mode : Secure
Utilize accurate stream : Yes
Defeat audio cache : Yes
Make use of C2 pointers : No

Read offset correction : 6
Overread into Lead-In and Lead-Out : No
Fill up missing offset samples with silence : Yes
Delete leading and trailing silent blocks : No
Null samples used in CRC calculations : Yes
Used interface : Native Win32 interface for Win NT & 2000
Gap handling : Appended to previous track

Used output format : User Defined Encoder
Selected bitrate : 1024 kBit/s
Quality : High
Add ID3 tag : No
Command line compressor : C:\Program Files (x86)\Exact Audio Copy\FLAC\FLAC.EXE
Additional command line options : -8 -V -T “artist=%artist%” -T “title=%title%” -T “album=%albumtitle%” -T “date=%year%” -T “tracknumber=%tracknr%” -T “genre=%genre%” %source%

TOC of the extracted CD

Track | Start | Length | Start sector | End sector
———————————————————
1 | 0:00.00 | 3:40.38 | 0 | 16537
2 | 3:40.38 | 3:35.14 | 16538 | 32676
3 | 7:15.52 | 4:15.51 | 32677 | 51852
4 | 11:31.28 | 3:08.43 | 51853 | 65995
5 | 14:39.71 | 3:08.52 | 65996 | 80147
6 | 17:48.48 | 3:43.00 | 80148 | 96872
7 | 21:31.48 | 2:57.40 | 96873 | 110187
8 | 24:29.13 | 3:33.46 | 110188 | 126208
9 | 28:02.59 | 3:41.16 | 126209 | 142799
10 | 31:44.00 | 2:55.14 | 142800 | 155938
11 | 34:39.14 | 3:00.55 | 155939 | 169493
12 | 37:39.69 | 3:45.61 | 169494 | 186429

Track 1

Filename C:\EAC\Avril Lavigne – 2019 – Head Above Water [BMG, 538441782] [CD FLAC]\01 Head Above Water.wav

Pre-gap length 0:00:02.00

Peak level 99.8 %
Extraction speed 2.1 X
Track quality 100.0 %
Test CRC 6FF08649
Copy CRC 6FF08649
Track not present in AccurateRip database
Copy OK

Track 2

Filename C:\EAC\Avril Lavigne – 2019 – Head Above Water [BMG, 538441782] [CD FLAC]\02 Birdie.wav

Peak level 99.8 %
Extraction speed 2.3 X
Track quality 100.0 %
Test CRC 0CF00219
Copy CRC 0CF00219
Track not present in AccurateRip database
Copy OK

Track 3

Filename C:\EAC\Avril Lavigne – 2019 – Head Above Water [BMG, 538441782] [CD FLAC]\03 I Fell in Love with the Devil.wav

Peak level 99.7 %
Extraction speed 2.6 X
Track quality 100.0 %
Test CRC B3C67B95
Copy CRC B3C67B95
Track not present in AccurateRip database
Copy OK

Track 4

Filename C:\EAC\Avril Lavigne – 2019 – Head Above Water [BMG, 538441782] [CD FLAC]\04 Tell Me It’s Over.wav

Peak level 99.8 %
Extraction speed 2.0 X
Track quality 99.9 %
Test CRC 2A726340
Copy CRC 2A726340
Track not present in AccurateRip database
Copy OK

Track 5

Filename C:\EAC\Avril Lavigne – 2019 – Head Above Water [BMG, 538441782] [CD FLAC]\05 Dumb Blonde.wav

Peak level 99.8 %
Extraction speed 2.8 X
Track quality 100.0 %
Test CRC 35FD92D8
Copy CRC 35FD92D8
Track not present in AccurateRip database
Copy OK

Track 6

Filename C:\EAC\Avril Lavigne – 2019 – Head Above Water [BMG, 538441782] [CD FLAC]\06 It Was in Me.wav

Peak level 99.7 %
Extraction speed 3.0 X
Track quality 100.0 %
Test CRC BAC91E03
Copy CRC BAC91E03
Track not present in AccurateRip database
Copy OK

Track 7

Filename C:\EAC\Avril Lavigne – 2019 – Head Above Water [BMG, 538441782] [CD FLAC]\07 Souvenir.wav

Peak level 98.8 %
Extraction speed 3.0 X
Track quality 100.0 %
Test CRC 628A94E4
Copy CRC 628A94E4
Track not present in AccurateRip database
Copy OK

Track 8

Filename C:\EAC\Avril Lavigne – 2019 – Head Above Water [BMG, 538441782] [CD FLAC]\08 Crush.wav

Peak level 99.8 %
Extraction speed 3.2 X
Track quality 100.0 %
Test CRC 49776810
Copy CRC 49776810
Track not present in AccurateRip database
Copy OK

Track 9

Filename C:\EAC\Avril Lavigne – 2019 – Head Above Water [BMG, 538441782] [CD FLAC]\09 Goddess.wav

Peak level 95.7 %
Extraction speed 3.4 X
Track quality 100.0 %
Test CRC F0BB028C
Copy CRC F0BB028C
Track not present in AccurateRip database
Copy OK

Track 10

Filename C:\EAC\Avril Lavigne – 2019 – Head Above Water [BMG, 538441782] [CD FLAC]\10 Bigger Wow.wav

Peak level 98.8 %
Extraction speed 3.4 X
Track quality 100.0 %
Test CRC 1C06CD03
Copy CRC 1C06CD03
Track not present in AccurateRip database
Copy OK

Track 11

Filename C:\EAC\Avril Lavigne – 2019 – Head Above Water [BMG, 538441782] [CD FLAC]\11 Love Me Insane.wav

Peak level 98.8 %
Extraction speed 3.5 X
Track quality 100.0 %
Test CRC BABF17AC
Copy CRC BABF17AC
Track not present in AccurateRip database
Copy OK

Track 12

Filename C:\EAC\Avril Lavigne – 2019 – Head Above Water [BMG, 538441782] [CD FLAC]\12 Warrior.wav

Peak level 98.8 %
Extraction speed 3.7 X
Track quality 100.0 %
Test CRC 2196DDBC
Copy CRC 2196DDBC
Track not present in AccurateRip database
Copy OK

None of the tracks are present in the AccurateRip database

No errors occurred

End of status report

—- CUETools DB Plugin V2.1.6

[CTDB TOCID: 6qF94fIRQnWXGAo3RvZyK8eoTE8-] found
Submit result: already submitted
Track | CTDB Status
1 | (21/21) Accurately ripped
2 | (21/21) Accurately ripped
3 | ( 2/21) Accurately ripped, or (12/21) differs in 113 samples @04:15:42-04:15:45
4 | ( 6/21) Accurately ripped, or (12/21) differs in 2 samples @00:00:00
5 | (21/21) Accurately ripped
6 | (21/21) Accurately ripped
7 | (21/21) Accurately ripped
8 | (21/21) Accurately ripped
9 | (21/21) Accurately ripped
10 | (21/21) Accurately ripped
11 | (21/21) Accurately ripped
12 | (21/21) Accurately ripped
If you are sure that your rip contains errors, you can use CUETools to repair it.

==== Log checksum 604A143C68AEDA5B3CD4C5D4D830A2DBDCFBF0C6ED7C2B4AE9E4E10C1BB18F34 ====

REM DATE 2019
REM DISCID 9609B50C
PERFORMER “Avril Lavigne”
TITLE “Head Above Water”
REM COMPOSER “”
REM DISCNUMBER 1
REM TOTALDISCS 1
FILE “01 Head Above Water.m4a” WAVE
TRACK 01 AUDIO
TITLE “Head Above Water”
PERFORMER “Avril Lavigne”
REM COMPOSER “”
INDEX 01 00:00:00
FILE “02 Birdie.m4a” WAVE
TRACK 02 AUDIO
TITLE “Birdie”
PERFORMER “Avril Lavigne”
REM COMPOSER “”
INDEX 01 00:00:00
FILE “03 I Fell in Love With the Devil.m4a” WAVE
TRACK 03 AUDIO
TITLE “I Fell in Love With the Devil”
PERFORMER “Avril Lavigne”
REM COMPOSER “”
INDEX 01 00:00:00
FILE “04 Tell Me It’s Over.m4a” WAVE
TRACK 04 AUDIO
TITLE “Tell Me It’s Over”
PERFORMER “Avril Lavigne”
REM COMPOSER “”
INDEX 01 00:00:00
FILE “05 Dumb Blonde.m4a” WAVE
TRACK 05 AUDIO
TITLE “Dumb Blonde”
PERFORMER “Avril Lavigne”
REM COMPOSER “”
INDEX 01 00:00:00
FILE “06 It Was in Me.m4a” WAVE
TRACK 06 AUDIO
TITLE “It Was in Me”
PERFORMER “Avril Lavigne”
REM COMPOSER “”
INDEX 01 00:00:00
FILE “07 Souvenir.m4a” WAVE
TRACK 07 AUDIO
TITLE “Souvenir”
PERFORMER “Avril Lavigne”
REM COMPOSER “”
INDEX 01 00:00:00
FILE “08 Crush.m4a” WAVE
TRACK 08 AUDIO
TITLE “Crush”
PERFORMER “Avril Lavigne”
REM COMPOSER “”
INDEX 01 00:00:00
FILE “09 Goddess.m4a” WAVE
TRACK 09 AUDIO
TITLE “Goddess”
PERFORMER “Avril Lavigne”
REM COMPOSER “”
INDEX 01 00:00:00
FILE “10 Bigger Wow.m4a” WAVE
TRACK 10 AUDIO
TITLE “Bigger Wow”
PERFORMER “Avril Lavigne”
REM COMPOSER “”
INDEX 01 00:00:00
FILE “11 Love Me Insane.m4a” WAVE
TRACK 11 AUDIO
TITLE “Love Me Insane”
PERFORMER “Avril Lavigne”
REM COMPOSER “”
INDEX 01 00:00:00
FILE “12 Warrior.m4a” WAVE
TRACK 12 AUDIO
TITLE “Warrior”
PERFORMER “Avril Lavigne”
REM COMPOSER “”
INDEX 01 00:00:00


0

Publication author

offline 7 days

Chaos

3
Comments: 4Publics: 3565Registration: 02-02-2019
Spread the Download

Leave a Reply

Your email address will not be published. Required fields are marked *

Enter the text from the image below
 

This site uses Akismet to reduce spam. Learn how your comment data is processed.