Avenged Sevenfold – Waking The Fallen




Artist: Avenged Sevenfold
Year: 2003
Genre: Hardcore
Notes: Discogs
Add. Notes:
Cover incl.: Yes
Encoder: FLAC
Bitrate: ~1000 kBit/s (44.1 kHz/16 Bit/s)
Log & Cue incl.: Yes
Size: 486,67 MB
Password: “slam” (without ” “)


All Downloads/Hosters are compatible

Download 1
Turbobit.net
Rapidgator.net
KatFile.com
UploadRar.com
Download 2
Turbobit.net
Rapidgator.net
KatFile.com
UploadRar.com

Tracklist:

1 - Waking The Fallen - 1:42
2 - Unholy Confessions - 4:43
3 - Chapter Four - 5:42
4 - Remenissions - 6:06
5 - Desecrate Through Reverence - 5:38
6 - Eternal Rest - 5:12
7 - Second Heartbeat - 7:00
8 - Radiant Eclipse - 6:09
9 - I Won't See You Tonight Part 1 - 8:58
10 - I Won't See You Tonight Part 2 - 4:44
11 - Clairvoyant Disease - 4:59
12 - And All Things Will End - 7:40

EAC-Log, CUE-Sheed & NFO:

Click to open spoiler
Exact Audio Copy V0.99 prebeta 3 from 28. July 2007

EAC extraction logfile from 8. December 2007, 5:09

Avenged Sevenfold / Waking the Fallen

Used drive : LITE-ON DVDRW LH-20A1P Adapter: 0 ID: 0

Read mode : Secure
Utilize accurate stream : Yes
Defeat audio cache : Yes
Make use of C2 pointers : No

Read offset correction : 6
Overread into Lead-In and Lead-Out : No
Fill up missing offset samples with silence : Yes
Delete leading and trailing silent blocks : No
Null samples used in CRC calculations : Yes
Used interface : Installed external ASPI interface
Gap handling : Appended to previous track

Used output format : User Defined Encoder
Selected bitrate : 128 kBit/s
Quality : High
Add ID3 tag : No
Command line compressor : C:\Program Files\FLAC\flac.exe
Additional command line options : # -8 -A tukey(0.25) -A gauss(0.1875) -b 4096 -V -T “artist=%a” -T “title=%t” -T “album=%g” -T “date=%y” -T “tracknumber=%n” -T “genre=%m” %s –sector-align

TOC of the extracted CD

Track | Start | Length | Start sector | End sector
———————————————————
1 | 0:00.00 | 1:42.25 | 0 | 7674
2 | 1:42.25 | 4:43.62 | 7675 | 28961
3 | 6:26.12 | 5:42.40 | 28962 | 54651
4 | 12:08.52 | 6:06.50 | 54652 | 82151
5 | 18:15.27 | 5:38.03 | 82152 | 107504
6 | 23:53.30 | 5:12.50 | 107505 | 130954
7 | 29:06.05 | 7:00.25 | 130955 | 162479
8 | 36:06.30 | 6:09.50 | 162480 | 190204
9 | 42:16.05 | 8:58.25 | 190205 | 230579
10 | 51:14.30 | 4:44.52 | 230580 | 251931
11 | 55:59.07 | 4:59.68 | 251932 | 274424
12 | 60:59.00 | 7:40.65 | 274425 | 308989

Track 1

Filename C:\Documents and Settings\Benton\Desktop\Avenged Sevenfold – Waking the Fallen FLAC\Avenged Sevenfold – 01 – Waking the Fallen.wav

Pre-gap length 0:00:02.00

Peak level 98.8 %
Track quality 100.0 %
Test CRC 128A631D
Copy CRC 128A631D
Cannot be verified as accurate (confidence 14) [420EEA01], AccurateRip returned [68F3AA73]
Copy OK

Track 2

Filename C:\Documents and Settings\Benton\Desktop\Avenged Sevenfold – Waking the Fallen FLAC\Avenged Sevenfold – 02 – Unholy Confessions.wav

Peak level 100.0 %
Track quality 100.0 %
Test CRC 822AC65D
Copy CRC 822AC65D
Cannot be verified as accurate (confidence 15) [1E3008AA], AccurateRip returned [77B3996A]
Copy OK

Track 3

Filename C:\Documents and Settings\Benton\Desktop\Avenged Sevenfold – Waking the Fallen FLAC\Avenged Sevenfold – 03 – Chapter Four.wav

Peak level 99.3 %
Track quality 100.0 %
Test CRC 7EF3B234
Copy CRC 7EF3B234
Cannot be verified as accurate (confidence 14) [98A302D5], AccurateRip returned [A34370E8]
Copy OK

Track 4

Filename C:\Documents and Settings\Benton\Desktop\Avenged Sevenfold – Waking the Fallen FLAC\Avenged Sevenfold – 04 – Remenissions.wav

Peak level 99.0 %
Track quality 100.0 %
Test CRC 40B49ED4
Copy CRC 40B49ED4
Cannot be verified as accurate (confidence 14) [6A526511], AccurateRip returned [3712B794]
Copy OK

Track 5

Filename C:\Documents and Settings\Benton\Desktop\Avenged Sevenfold – Waking the Fallen FLAC\Avenged Sevenfold – 05 – Desecrate Through Reverence.wav

Peak level 98.8 %
Track quality 99.9 %
Test CRC 4F1A4952
Copy CRC 4F1A4952
Cannot be verified as accurate (confidence 15) [01FE87CA], AccurateRip returned [28BCE3C8]
Copy OK

Track 6

Filename C:\Documents and Settings\Benton\Desktop\Avenged Sevenfold – Waking the Fallen FLAC\Avenged Sevenfold – 06 – Eternal Rest.wav

Peak level 100.0 %
Track quality 100.0 %
Test CRC 61929C5B
Copy CRC 61929C5B
Cannot be verified as accurate (confidence 15) [F1E8602C], AccurateRip returned [3C5DA33A]
Copy OK

Track 7

Filename C:\Documents and Settings\Benton\Desktop\Avenged Sevenfold – Waking the Fallen FLAC\Avenged Sevenfold – 07 – Second Heartbeat.wav

Peak level 98.8 %
Track quality 100.0 %
Test CRC D95A889A
Copy CRC D95A889A
Cannot be verified as accurate (confidence 14) [5F2CDAA0], AccurateRip returned [EBCA2D10]
Copy OK

Track 8

Filename C:\Documents and Settings\Benton\Desktop\Avenged Sevenfold – Waking the Fallen FLAC\Avenged Sevenfold – 08 – Radiant Eclipse.wav

Peak level 98.8 %
Track quality 100.0 %
Test CRC CC779165
Copy CRC CC779165
Cannot be verified as accurate (confidence 15) [4009ADEC], AccurateRip returned [F836439F]
Copy OK

Track 9

Filename C:\Documents and Settings\Benton\Desktop\Avenged Sevenfold – Waking the Fallen FLAC\Avenged Sevenfold – 09 – I Won’t See You Tonight part 1.wav

Peak level 98.8 %
Track quality 100.0 %
Test CRC 3CD7EF6C
Copy CRC 3CD7EF6C
Cannot be verified as accurate (confidence 15) [903226B1], AccurateRip returned [5A388AFA]
Copy OK

Track 10

Filename C:\Documents and Settings\Benton\Desktop\Avenged Sevenfold – Waking the Fallen FLAC\Avenged Sevenfold – 10 – I Won’t See You Tonight part 2.wav

Peak level 98.8 %
Track quality 100.0 %
Test CRC 5593F4EA
Copy CRC 5593F4EA
Cannot be verified as accurate (confidence 15) [4E85280F], AccurateRip returned [261D30AF]
Copy OK

Track 11

Filename C:\Documents and Settings\Benton\Desktop\Avenged Sevenfold – Waking the Fallen FLAC\Avenged Sevenfold – 11 – Clairvoyant Disease.wav

Peak level 98.8 %
Track quality 100.0 %
Test CRC 0EF0D98B
Copy CRC 0EF0D98B
Cannot be verified as accurate (confidence 14) [22325EF4], AccurateRip returned [58A7AE94]
Copy OK

Track 12

Filename C:\Documents and Settings\Benton\Desktop\Avenged Sevenfold – Waking the Fallen FLAC\Avenged Sevenfold – 12 – And All Things Will End.wav

Peak level 98.8 %
Track quality 100.0 %
Test CRC CF9A382B
Copy CRC CF9A382B
Cannot be verified as accurate (confidence 14) [E4036E47], AccurateRip returned [ACE90F13]
Copy OK

No tracks could be verified as accurate
You may have a different pressing from the one(s) in the database

No errors occurred

End of status report
REM GENRE Hardcore
REM DATE 2003
REM DISCID A610170C
REM COMMENT “ExactAudioCopy v0.99pb3”
PERFORMER “Avenged Sevenfold”
TITLE “Waking the Fallen”
FILE “Avenged Sevenfold – 01 – Waking the Fallen.wav” WAVE
TRACK 01 AUDIO
TITLE “Waking the Fallen”
PERFORMER “Avenged Sevenfold”
INDEX 01 00:00:00
FILE “Avenged Sevenfold – 02 – Unholy Confessions.wav” WAVE
TRACK 02 AUDIO
TITLE “Unholy Confessions”
PERFORMER “Avenged Sevenfold”
INDEX 01 00:00:00
FILE “Avenged Sevenfold – 03 – Chapter Four.wav” WAVE
TRACK 03 AUDIO
TITLE “Chapter Four”
PERFORMER “Avenged Sevenfold”
INDEX 01 00:00:00
FILE “Avenged Sevenfold – 04 – Remenissions.wav” WAVE
TRACK 04 AUDIO
TITLE “Remenissions”
PERFORMER “Avenged Sevenfold”
INDEX 01 00:00:00
FILE “Avenged Sevenfold – 05 – Desecrate Through Reverence.wav” WAVE
TRACK 05 AUDIO
TITLE “Desecrate Through Reverence”
PERFORMER “Avenged Sevenfold”
INDEX 01 00:00:00
FILE “Avenged Sevenfold – 06 – Eternal Rest.wav” WAVE
TRACK 06 AUDIO
TITLE “Eternal Rest”
PERFORMER “Avenged Sevenfold”
INDEX 01 00:00:00
FILE “Avenged Sevenfold – 07 – Second Heartbeat.wav” WAVE
TRACK 07 AUDIO
TITLE “Second Heartbeat”
PERFORMER “Avenged Sevenfold”
INDEX 01 00:00:00
FILE “Avenged Sevenfold – 08 – Radiant Eclipse.wav” WAVE
TRACK 08 AUDIO
TITLE “Radiant Eclipse”
PERFORMER “Avenged Sevenfold”
INDEX 01 00:00:00
FILE “Avenged Sevenfold – 09 – I Won’t See You Tonight part 1.wav” WAVE
TRACK 09 AUDIO
TITLE “I Won’t See You Tonight part 1”
PERFORMER “Avenged Sevenfold”
INDEX 01 00:00:00
FILE “Avenged Sevenfold – 10 – I Won’t See You Tonight part 2.wav” WAVE
TRACK 10 AUDIO
TITLE “I Won’t See You Tonight part 2”
PERFORMER “Avenged Sevenfold”
INDEX 01 00:00:00
FILE “Avenged Sevenfold – 11 – Clairvoyant Disease.wav” WAVE
TRACK 11 AUDIO
TITLE “Clairvoyant Disease”
PERFORMER “Avenged Sevenfold”
INDEX 01 00:00:00
FILE “Avenged Sevenfold – 12 – And All Things Will End.wav” WAVE
TRACK 12 AUDIO
TITLE “And All Things Will End”
PERFORMER “Avenged Sevenfold”
INDEX 01 00:00:00


Leave a Reply

Your email address will not be published. Required fields are marked *

This site uses Akismet to reduce spam. Learn how your comment data is processed.