Avenged Sevenfold – Sounding The Seventh Trumpet




Artist: Avenged Sevenfold
Year: 2001
Genre: Metal
Notes: Discogs
Add. Notes:
Cover incl.: Yes
Encoder: FLAC
Bitrate: ~1000 kBit/s (44.1 kHz/16 Bit/s)
Log & Cue incl.: Yes
Size: 385,56 MB
Password: “slam” (without ” “)


All Downloads/Hosters are compatible

Download 1
Turbobit.net
KatFile.com
Rapidgator.net
Usersdrive.com
Download 2
Turbobit.net
KatFile.com
Rapidgator.net
Usersdrive.com

Tracklist:

1 - To End The Rapture - 1:24
2 - Turn The Other Way - 5:36
3 - Darkness Surrounding - 4:49
4 - The Art Of Subconscious Illusion - 3:45
5 - We Come Out At Night - 4:44
6 - Lips Of Deceit - 4:09
7 - Warmness On The Soul - 4:19
8 - An Epic Of Time Wasted - 4:18
9 - Breaking Their Hold - 1:11
10 - Forgotten Faces - 3:26
11 - Thick And Thin - 4:15
12 - Streets - 3:06
13 - Shattered By Broken Dreams - 7:08

EAC-Log, CUE-Sheed & NFO:

Click to open spoiler
Exact Audio Copy V0.99 prebeta 3 from 28. July 2007

EAC extraction logfile from 7. December 2007, 23:26

Avenged Sevenfold / Sounding the Seventh Trumpet

Used drive : LITE-ON DVDRW LH-20A1P Adapter: 0 ID: 0

Read mode : Secure
Utilize accurate stream : Yes
Defeat audio cache : Yes
Make use of C2 pointers : No

Read offset correction : 6
Overread into Lead-In and Lead-Out : No
Fill up missing offset samples with silence : Yes
Delete leading and trailing silent blocks : No
Null samples used in CRC calculations : Yes
Used interface : Native Win32 interface for Win NT & 2000
Gap handling : Appended to previous track

Used output format : User Defined Encoder
Selected bitrate : 128 kBit/s
Quality : High
Add ID3 tag : No
Command line compressor : C:\Program Files\FLAC\flac.exe
Additional command line options : # -8 -A tukey(0.25) -A gauss(0.1875) -b 4096 -V -T “artist=%a” -T “title=%t” -T “album=%g” -T “date=%y” -T “tracknumber=%n” -T “genre=%m” %s –sector-align

TOC of the extracted CD

Track | Start | Length | Start sector | End sector
———————————————————
1 | 0:00.00 | 1:24.05 | 0 | 6304
2 | 1:24.05 | 5:36.40 | 6305 | 31544
3 | 7:00.45 | 4:49.28 | 31545 | 53247
4 | 11:49.73 | 3:45.55 | 53248 | 70177
5 | 15:35.53 | 4:44.70 | 70178 | 91547
6 | 20:20.48 | 4:09.12 | 91548 | 110234
7 | 24:29.60 | 4:19.60 | 110235 | 129719
8 | 28:49.45 | 4:18.63 | 129720 | 149132
9 | 33:08.33 | 1:11.55 | 149133 | 154512
10 | 34:20.13 | 3:26.70 | 154513 | 170032
11 | 37:47.08 | 4:15.20 | 170033 | 189177
12 | 42:02.28 | 3:06.35 | 189178 | 203162
13 | 45:08.63 | 7:06.22 | 203163 | 235134

Track 1

Filename C:\Documents and Settings\Benton\Desktop\Avenged Sevenfold – Sounding the Seventh Trumpet FLAC\Avenged Sevenfold – 01 – To End The Rapture.wav

Pre-gap length 0:00:02.00

Peak level 100.0 %
Track quality 100.0 %
Test CRC A5738A2A
Copy CRC A5738A2A
Accurately ripped (confidence 2) [ECBA2983]
Copy OK

Track 2

Filename C:\Documents and Settings\Benton\Desktop\Avenged Sevenfold – Sounding the Seventh Trumpet FLAC\Avenged Sevenfold – 02 – Turn The Other Way.wav

Peak level 98.8 %
Track quality 100.0 %
Test CRC 9011D6D0
Copy CRC 9011D6D0
Accurately ripped (confidence 2) [E54AA451]
Copy OK

Track 3

Filename C:\Documents and Settings\Benton\Desktop\Avenged Sevenfold – Sounding the Seventh Trumpet FLAC\Avenged Sevenfold – 03 – Darkness Surrounding.wav

Peak level 98.8 %
Track quality 100.0 %
Test CRC ED1D792A
Copy CRC ED1D792A
Accurately ripped (confidence 2) [756FABFC]
Copy OK

Track 4

Filename C:\Documents and Settings\Benton\Desktop\Avenged Sevenfold – Sounding the Seventh Trumpet FLAC\Avenged Sevenfold – 04 – The Art Of Subconscious Illusion.wav

Peak level 100.0 %
Track quality 100.0 %
Test CRC 6309C4A3
Copy CRC 6309C4A3
Accurately ripped (confidence 2) [51F25BFF]
Copy OK

Track 5

Filename C:\Documents and Settings\Benton\Desktop\Avenged Sevenfold – Sounding the Seventh Trumpet FLAC\Avenged Sevenfold – 05 – We Come Out At Night.wav

Peak level 100.0 %
Track quality 99.9 %
Test CRC DF6C73CC
Copy CRC DF6C73CC
Accurately ripped (confidence 2) [F519C815]
Copy OK

Track 6

Filename C:\Documents and Settings\Benton\Desktop\Avenged Sevenfold – Sounding the Seventh Trumpet FLAC\Avenged Sevenfold – 06 – Lips Of Deceit.wav

Peak level 98.8 %
Track quality 100.0 %
Test CRC 0B123F2D
Copy CRC 0B123F2D
Accurately ripped (confidence 2) [8BBD2516]
Copy OK

Track 7

Filename C:\Documents and Settings\Benton\Desktop\Avenged Sevenfold – Sounding the Seventh Trumpet FLAC\Avenged Sevenfold – 07 – Warmness On The Soul.wav

Peak level 98.8 %
Track quality 100.0 %
Test CRC 7CABAFA9
Copy CRC 7CABAFA9
Accurately ripped (confidence 2) [6DB49604]
Copy OK

Track 8

Filename C:\Documents and Settings\Benton\Desktop\Avenged Sevenfold – Sounding the Seventh Trumpet FLAC\Avenged Sevenfold – 08 – An Epic Of Time Wasted.wav

Peak level 98.8 %
Track quality 100.0 %
Test CRC DE55DD08
Copy CRC DE55DD08
Accurately ripped (confidence 2) [E19DE045]
Copy OK

Track 9

Filename C:\Documents and Settings\Benton\Desktop\Avenged Sevenfold – Sounding the Seventh Trumpet FLAC\Avenged Sevenfold – 09 – Breaking Their Hold.wav

Peak level 99.0 %
Track quality 99.8 %
Test CRC F89F29CD
Copy CRC F89F29CD
Accurately ripped (confidence 2) [BB3977D8]
Copy OK

Track 10

Filename C:\Documents and Settings\Benton\Desktop\Avenged Sevenfold – Sounding the Seventh Trumpet FLAC\Avenged Sevenfold – 10 – Forgotten Faces.wav

Peak level 98.8 %
Track quality 100.0 %
Test CRC 30E9284E
Copy CRC 30E9284E
Accurately ripped (confidence 2) [1FBAD277]
Copy OK

Track 11

Filename C:\Documents and Settings\Benton\Desktop\Avenged Sevenfold – Sounding the Seventh Trumpet FLAC\Avenged Sevenfold – 11 – Thick And Thin.wav

Peak level 98.8 %
Track quality 100.0 %
Test CRC F7EF1E0F
Copy CRC F7EF1E0F
Accurately ripped (confidence 2) [03B275EA]
Copy OK

Track 12

Filename C:\Documents and Settings\Benton\Desktop\Avenged Sevenfold – Sounding the Seventh Trumpet FLAC\Avenged Sevenfold – 12 – Streets.wav

Peak level 98.8 %
Track quality 100.0 %
Test CRC 0CBD654C
Copy CRC 0CBD654C
Accurately ripped (confidence 2) [E1054828]
Copy OK

Track 13

Filename C:\Documents and Settings\Benton\Desktop\Avenged Sevenfold – Sounding the Seventh Trumpet FLAC\Avenged Sevenfold – 13 – Shattered By Broken Dreams.wav

Peak level 100.0 %
Track quality 100.0 %
Test CRC 2C185C80
Copy CRC 2C185C80
Accurately ripped (confidence 2) [65E6414A]
Copy OK

All tracks accurately ripped

No errors occurred

End of status report

REM GENRE Metal
REM DATE 2001
REM DISCID 9B0C3F0D
REM COMMENT “ExactAudioCopy v0.99pb3”
PERFORMER “Avenged Sevenfold”
TITLE “Sounding the Seventh Trumpet”
FILE “Avenged Sevenfold – 01 – To End The Rapture.wav” WAVE
TRACK 01 AUDIO
TITLE “To End The Rapture”
PERFORMER “Avenged Sevenfold”
INDEX 01 00:00:00
FILE “Avenged Sevenfold – 02 – Turn The Other Way.wav” WAVE
TRACK 02 AUDIO
TITLE “Turn The Other Way”
PERFORMER “Avenged Sevenfold”
INDEX 01 00:00:00
FILE “Avenged Sevenfold – 03 – Darkness Surrounding.wav” WAVE
TRACK 03 AUDIO
TITLE “Darkness Surrounding”
PERFORMER “Avenged Sevenfold”
INDEX 01 00:00:00
FILE “Avenged Sevenfold – 04 – The Art Of Subconscious Illusion.wav” WAVE
TRACK 04 AUDIO
TITLE “The Art Of Subconscious Illusion”
PERFORMER “Avenged Sevenfold”
INDEX 01 00:00:00
FILE “Avenged Sevenfold – 05 – We Come Out At Night.wav” WAVE
TRACK 05 AUDIO
TITLE “We Come Out At Night”
PERFORMER “Avenged Sevenfold”
INDEX 01 00:00:00
FILE “Avenged Sevenfold – 06 – Lips Of Deceit.wav” WAVE
TRACK 06 AUDIO
TITLE “Lips Of Deceit”
PERFORMER “Avenged Sevenfold”
INDEX 01 00:00:00
FILE “Avenged Sevenfold – 07 – Warmness On The Soul.wav” WAVE
TRACK 07 AUDIO
TITLE “Warmness On The Soul”
PERFORMER “Avenged Sevenfold”
INDEX 01 00:00:00
FILE “Avenged Sevenfold – 08 – An Epic Of Time Wasted.wav” WAVE
TRACK 08 AUDIO
TITLE “An Epic Of Time Wasted”
PERFORMER “Avenged Sevenfold”
INDEX 01 00:00:00
FILE “Avenged Sevenfold – 09 – Breaking Their Hold.wav” WAVE
TRACK 09 AUDIO
TITLE “Breaking Their Hold”
PERFORMER “Avenged Sevenfold”
INDEX 01 00:00:00
FILE “Avenged Sevenfold – 10 – Forgotten Faces.wav” WAVE
TRACK 10 AUDIO
TITLE “Forgotten Faces”
PERFORMER “Avenged Sevenfold”
INDEX 01 00:00:00
FILE “Avenged Sevenfold – 11 – Thick And Thin.wav” WAVE
TRACK 11 AUDIO
TITLE “Thick And Thin”
PERFORMER “Avenged Sevenfold”
INDEX 01 00:00:00
FILE “Avenged Sevenfold – 12 – Streets.wav” WAVE
TRACK 12 AUDIO
TITLE “Streets”
PERFORMER “Avenged Sevenfold”
INDEX 01 00:00:00
FILE “Avenged Sevenfold – 13 – Shattered By Broken Dreams.wav” WAVE
TRACK 13 AUDIO
TITLE “Shattered By Broken Dreams”
PERFORMER “Avenged Sevenfold”
INDEX 01 00:00:00


Leave a Reply

Your email address will not be published. Required fields are marked *

This site uses Akismet to reduce spam. Learn how your comment data is processed.