Avenged Sevenfold – Nightmare




Artist: Avenged Sevenfold
Year: 2010
Genre: Metal
Notes: Discogs
Add. Notes:
Cover incl.: Yes
Encoder: FLAC
Bitrate: ~1000 kBit/s (44.1 kHz/16 Bit/s)
Log & Cue incl.: Yes
Size: 517,06 MB
Password: “slam” (without ” “)


All Downloads/Hosters are compatible

Download 1
Turbobit.net
NitroFlare.com
KatFile.com
Rapidgator.net
Download 2
Turbobit.net
NitroFlare.com
KatFile.com
Rapidgator.net

Tracklist:

1 - Nightmare - 6:14
2 - Welcome To The Family - 4:06
3 - Danger Line - 5:28
4 - Buried Alive - 6:14
5 - Natural Born Killer - 5:15
6 - So Far Away - 5:27
7 - God Hates Us - 5:18
8 - Victim - 7:30
9 - Tonight The World Dies - 4:41
10 - Fiction - 5:13
11 - Save Me - 10:56

EAC-Log, CUE-Sheed & NFO:

Click to open spoiler
Exact Audio Copy V0.99 prebeta 5 from 4. May 2009

EAC extraction logfile from 24. July 2010, 22:38

Avenged Sevenfold / Nightmare

Used drive : SONY CD-RW CRX230EE Adapter: 0 ID: 1

Read mode : Secure
Utilize accurate stream : Yes
Defeat audio cache : Yes
Make use of C2 pointers : No

Read offset correction : 6
Overread into Lead-In and Lead-Out : No
Fill up missing offset samples with silence : Yes
Delete leading and trailing silent blocks : No
Null samples used in CRC calculations : Yes
Used interface : Native Win32 interface for Win NT & 2000
Gap handling : Appended to previous track

Used output format : User Defined Encoder
Selected bitrate : 128 kBit/s
Quality : High
Add ID3 tag : No
Command line compressor : C:\Users\XeRo\Documents\flac.exe
Additional command line options : -V -8 -T “artist=%a” -T “title=%t” -T “album=%g” -T “date=%y” -T “tracknumber=%n” -T “genre=%m” %s

TOC of the extracted CD

Track | Start | Length | Start sector | End sector
———————————————————
1 | 0:00.00 | 6:14.36 | 0 | 28085
2 | 6:14.36 | 4:05.45 | 28086 | 46505
3 | 10:20.06 | 5:28.29 | 46506 | 71134
4 | 15:48.35 | 6:44.29 | 71135 | 101463
5 | 22:32.64 | 5:15.13 | 101464 | 125101
6 | 27:48.02 | 5:26.63 | 125102 | 149614
7 | 33:14.65 | 5:19.14 | 149615 | 173553
8 | 38:34.04 | 7:29.54 | 173554 | 207282
9 | 46:03.58 | 4:41.17 | 207283 | 228374
10 | 50:45.00 | 5:12.62 | 228375 | 251836
11 | 55:57.62 | 10:56.37 | 251837 | 301073

Track 1

Filename C:\Users\XeRo\Documents\Avenged Sevenfold – Nightmare\01 – Nightmare.wav

Pre-gap length 0:00:02.00

Peak level 100.0 %
Track quality 100.0 %
Test CRC 448E238A
Copy CRC 448E238A
Track not present in AccurateRip database
Copy OK

Track 2

Filename C:\Users\XeRo\Documents\Avenged Sevenfold – Nightmare\02 – Welcome to the Family.wav

Peak level 100.0 %
Track quality 100.0 %
Test CRC C5885A0E
Copy CRC C5885A0E
Track not present in AccurateRip database
Copy OK

Track 3

Filename C:\Users\XeRo\Documents\Avenged Sevenfold – Nightmare\03 – Danger Line.wav

Peak level 100.0 %
Track quality 99.9 %
Test CRC F8C3869A
Copy CRC F8C3869A
Track not present in AccurateRip database
Copy OK

Track 4

Filename C:\Users\XeRo\Documents\Avenged Sevenfold – Nightmare\04 – Buried Alive.wav

Peak level 100.0 %
Track quality 100.0 %
Test CRC 3DC82E7C
Copy CRC 3DC82E7C
Track not present in AccurateRip database
Copy OK

Track 5

Filename C:\Users\XeRo\Documents\Avenged Sevenfold – Nightmare\05 – Natural Born Killer.wav

Peak level 100.0 %
Track quality 100.0 %
Test CRC A15C9B1D
Copy CRC A15C9B1D
Track not present in AccurateRip database
Copy OK

Track 6

Filename C:\Users\XeRo\Documents\Avenged Sevenfold – Nightmare\06 – So Far Away.wav

Peak level 100.0 %
Track quality 100.0 %
Test CRC 47B6B660
Copy CRC 47B6B660
Track not present in AccurateRip database
Copy OK

Track 7

Filename C:\Users\XeRo\Documents\Avenged Sevenfold – Nightmare\07 – God Hates Us.wav

Peak level 100.0 %
Track quality 100.0 %
Test CRC 2B61C38E
Copy CRC 2B61C38E
Track not present in AccurateRip database
Copy OK

Track 8

Filename C:\Users\XeRo\Documents\Avenged Sevenfold – Nightmare\08 – Victim.wav

Peak level 100.0 %
Track quality 100.0 %
Test CRC AD1AC91A
Copy CRC AD1AC91A
Track not present in AccurateRip database
Copy OK

Track 9

Filename C:\Users\XeRo\Documents\Avenged Sevenfold – Nightmare\09 – Tonight the World Dies.wav

Peak level 100.0 %
Track quality 99.9 %
Test CRC 2317FF7B
Copy CRC 2317FF7B
Track not present in AccurateRip database
Copy OK

Track 10

Filename C:\Users\XeRo\Documents\Avenged Sevenfold – Nightmare\10 – Fiction.wav

Peak level 100.0 %
Track quality 99.9 %
Test CRC C39BF67D
Copy CRC C39BF67D
Track not present in AccurateRip database
Copy OK

Track 11

Filename C:\Users\XeRo\Documents\Avenged Sevenfold – Nightmare\11 – Save Me.wav

Pre-gap length 0:00:04.63

Peak level 100.0 %
Track quality 99.9 %
Test CRC 8D971E75
Copy CRC 8D971E75
Track not present in AccurateRip database
Copy OK

None of the tracks are present in the AccurateRip database

No errors occurred

End of status report

REM GENRE Metal
REM DATE 2010
REM DISCID A00FAE0B
REM COMMENT “ExactAudioCopy v0.99pb5”
PERFORMER “Avenged Sevenfold”
TITLE “Nightmare”
FILE “01 – Nightmare.wav” WAVE
TRACK 01 AUDIO
TITLE “Nightmare”
PERFORMER “Avenged Sevenfold”
FLAGS DCP
INDEX 01 00:00:00
FILE “02 – Welcome to the Family.wav” WAVE
TRACK 02 AUDIO
TITLE “Welcome to the Family”
PERFORMER “Avenged Sevenfold”
FLAGS DCP
INDEX 01 00:00:00
FILE “03 – Danger Line.wav” WAVE
TRACK 03 AUDIO
TITLE “Danger Line”
PERFORMER “Avenged Sevenfold”
FLAGS DCP
INDEX 01 00:00:00
FILE “04 – Buried Alive.wav” WAVE
TRACK 04 AUDIO
TITLE “Buried Alive”
PERFORMER “Avenged Sevenfold”
FLAGS DCP
INDEX 01 00:00:00
FILE “05 – Natural Born Killer.wav” WAVE
TRACK 05 AUDIO
TITLE “Natural Born Killer”
PERFORMER “Avenged Sevenfold”
FLAGS DCP
INDEX 01 00:00:00
FILE “06 – So Far Away.wav” WAVE
TRACK 06 AUDIO
TITLE “So Far Away”
PERFORMER “Avenged Sevenfold”
FLAGS DCP
INDEX 01 00:00:00
FILE “07 – God Hates Us.wav” WAVE
TRACK 07 AUDIO
TITLE “God Hates Us”
PERFORMER “Avenged Sevenfold”
FLAGS DCP
INDEX 01 00:00:00
FILE “08 – Victim.wav” WAVE
TRACK 08 AUDIO
TITLE “Victim”
PERFORMER “Avenged Sevenfold”
FLAGS DCP
INDEX 01 00:00:00
FILE “09 – Tonight the World Dies.wav” WAVE
TRACK 09 AUDIO
TITLE “Tonight the World Dies”
PERFORMER “Avenged Sevenfold”
FLAGS DCP
INDEX 01 00:00:00
FILE “10 – Fiction.wav” WAVE
TRACK 10 AUDIO
TITLE “Fiction”
PERFORMER “Avenged Sevenfold”
FLAGS DCP
INDEX 01 00:00:00
TRACK 11 AUDIO
TITLE “Save Me”
PERFORMER “Avenged Sevenfold”
FLAGS DCP
INDEX 00 05:07:74
FILE “11 – Save Me.wav” WAVE
INDEX 01 00:00:00


Leave a Reply

Your email address will not be published. Required fields are marked *

This site uses Akismet to reduce spam. Learn how your comment data is processed.