Avenged Sevenfold – Diamonds In The Rough




Artist: Avenged Sevenfold
Year: 2008
Genre: Metal
Notes: Discogs
Add. Notes:
Cover incl.: Yes
Encoder: FLAC
Bitrate: ~1000 kBit/s (44.1 kHz/16 Bit/s)
Log & Cue incl.: Yes
Size: 400,59 MB
Password: “slam” (without ” “)


All Downloads/Hosters are compatible

Download 1
Turbobit.net
Rapidgator.net
KatFile.com
UploadRar.com
Download 2
Turbobit.net
Rapidgator.net
KatFile.com
UploadRar.com

Tracklist:

1 - Demons - 6:12
2 - Girl I Know - 4:24
3 - Crossroads - 4:30
4 - Flash Of The Blade - 4:02
5 - Until The End - 4:45
6 - Tension - 4:51
7 - Walk - 5:21
8 - The Fight - 4:07
9 - Dancing Dead - 5:49
10 - Almost Easy (CLA Mix) - 3:54
11 - Afterlife (Alternate Version) - 5:55

EAC-Log, CUE-Sheed & NFO:

Click to open spoiler
Exact Audio Copy V0.99 prebeta 4 from 23. January 2008

EAC extraction logfile from 4. October 2008, 10:55

Avenged Sevenfold / 2008 Diamonds In The Rough

Used drive : HL-DT-STDVDRRW GSA-H30L Adapter: 0 ID: 1

Read mode : Secure
Utilize accurate stream : Yes
Defeat audio cache : Yes
Make use of C2 pointers : No

Read offset correction : 102
Overread into Lead-In and Lead-Out : No
Fill up missing offset samples with silence : Yes
Delete leading and trailing silent blocks : No
Null samples used in CRC calculations : Yes
Used interface : Native Win32 interface for Win NT & 2000
Gap handling : Appended to previous track

Used output format : User Defined Encoder
Selected bitrate : 192 kBit/s
Quality : High
Add ID3 tag : No
Command line compressor : C:\Program Files\FLAC\flac.exe
Additional command line options : -V -8 -T “artist=%a” -T “title=%t” -T “album=%g” -T “date=%y” -T “tracknumber=%n” -T “genre=%m” %s

TOC of the extracted CD

Track | Start | Length | Start sector | End sector
———————————————————
1 | 0:00.00 | 6:11.59 | 0 | 27883
2 | 6:11.59 | 4:23.69 | 27884 | 47677
3 | 10:35.53 | 4:30.17 | 47678 | 67944
4 | 15:05.70 | 4:01.57 | 67945 | 86076
5 | 19:07.52 | 4:44.51 | 86077 | 107427
6 | 23:52.28 | 4:50.41 | 107428 | 129218
7 | 28:42.69 | 5:21.00 | 129219 | 153293
8 | 34:03.69 | 4:07.29 | 153294 | 171847
9 | 38:11.23 | 5:49.09 | 171848 | 198031
10 | 44:00.32 | 3:53.40 | 198032 | 215546
11 | 47:53.72 | 5:55.13 | 215547 | 242184

Track 1

Filename F:\Torrents\Downloads\Avenged Sevenfold – Diamonds In The Rough (2008) [FLAC]\01 – Demons.wav

Pre-gap length 0:00:02.00

Peak level 98.8 %
Track quality 100.0 %
Test CRC 00C3D932
Copy CRC 00C3D932
Track not present in AccurateRip database
Copy OK

Track 2

Filename F:\Torrents\Downloads\Avenged Sevenfold – Diamonds In The Rough (2008) [FLAC]\02 – Girl I Know.wav

Pre-gap length 0:00:00.22

Peak level 98.8 %
Track quality 100.0 %
Test CRC F77F428E
Copy CRC F77F428E
Track not present in AccurateRip database
Copy OK

Track 3

Filename F:\Torrents\Downloads\Avenged Sevenfold – Diamonds In The Rough (2008) [FLAC]\03 – Crossroads.wav

Pre-gap length 0:00:00.50

Peak level 98.8 %
Track quality 100.0 %
Test CRC DB82F928
Copy CRC DB82F928
Track not present in AccurateRip database
Copy OK

Track 4

Filename F:\Torrents\Downloads\Avenged Sevenfold – Diamonds In The Rough (2008) [FLAC]\04 – Flash of the Blade (Dickinson).wav

Pre-gap length 0:00:00.56

Peak level 98.8 %
Track quality 99.9 %
Test CRC 263A9F24
Copy CRC 263A9F24
Track not present in AccurateRip database
Copy OK

Track 5

Filename F:\Torrents\Downloads\Avenged Sevenfold – Diamonds In The Rough (2008) [FLAC]\05 – Until the End.wav

Pre-gap length 0:00:00.26

Peak level 98.8 %
Track quality 100.0 %
Test CRC 2A8FC2D1
Copy CRC 2A8FC2D1
Track not present in AccurateRip database
Copy OK

Track 6

Filename F:\Torrents\Downloads\Avenged Sevenfold – Diamonds In The Rough (2008) [FLAC]\06 – Tension.wav

Pre-gap length 0:00:00.21

Peak level 98.8 %
Track quality 99.9 %
Test CRC F7C2DC00
Copy CRC F7C2DC00
Track not present in AccurateRip database
Copy OK

Track 7

Filename F:\Torrents\Downloads\Avenged Sevenfold – Diamonds In The Rough (2008) [FLAC]\07 – Walk (Pantera).wav

Pre-gap length 0:00:00.22

Peak level 98.8 %
Track quality 100.0 %
Test CRC 4CD24269
Copy CRC 4CD24269
Track not present in AccurateRip database
Copy OK

Track 8

Filename F:\Torrents\Downloads\Avenged Sevenfold – Diamonds In The Rough (2008) [FLAC]\08 – The Fight.wav

Pre-gap length 0:00:00.12

Peak level 98.8 %
Track quality 99.9 %
Test CRC 5C65474C
Copy CRC 5C65474C
Track not present in AccurateRip database
Copy OK

Track 9

Filename F:\Torrents\Downloads\Avenged Sevenfold – Diamonds In The Rough (2008) [FLAC]\09 – Dancing Dead.wav

Pre-gap length 0:00:00.18

Peak level 98.8 %
Track quality 100.0 %
Test CRC 3767E603
Copy CRC 3767E603
Track not present in AccurateRip database
Copy OK

Track 10

Filename F:\Torrents\Downloads\Avenged Sevenfold – Diamonds In The Rough (2008) [FLAC]\10 – Almost Easy (CLA Mix).wav

Pre-gap length 0:00:00.65

Peak level 98.8 %
Track quality 100.0 %
Test CRC FF2F989E
Copy CRC FF2F989E
Track not present in AccurateRip database
Copy OK

Track 11

Filename F:\Torrents\Downloads\Avenged Sevenfold – Diamonds In The Rough (2008) [FLAC]\11 – Afterlife (Alternate Version).wav

Pre-gap length 0:00:00.58

Peak level 98.8 %
Track quality 100.0 %
Test CRC 178BE072
Copy CRC 178BE072
Track not present in AccurateRip database
Copy OK

None of the tracks are present in the AccurateRip database

No errors occurred

End of status report

REM GENRE “Heavy Metal”
REM DATE 2008
REM DISCID 970C9D0B
REM COMMENT “ExactAudioCopy v0.99pb4”
PERFORMER “Avenged Sevenfold”
TITLE “2008 Diamonds In The Rough”
FILE “01 – Demons.wav” WAVE
TRACK 01 AUDIO
TITLE “Demons”
PERFORMER “Avenged Sevenfold”
INDEX 01 00:00:00
TRACK 02 AUDIO
TITLE “Girl I Know”
PERFORMER “Avenged Sevenfold”
INDEX 00 06:11:42
FILE “02 – Girl I Know.wav” WAVE
INDEX 01 00:00:00
TRACK 03 AUDIO
TITLE “Crossroads”
PERFORMER “Avenged Sevenfold”
INDEX 00 04:23:31
FILE “03 – Crossroads.wav” WAVE
INDEX 01 00:00:00
TRACK 04 AUDIO
TITLE “Flash of the Blade (Dickinson)”
PERFORMER “Avenged Sevenfold”
INDEX 00 04:29:50
FILE “04 – Flash of the Blade (Dickinson).wav” WAVE
INDEX 01 00:00:00
TRACK 05 AUDIO
TITLE “Until the End”
PERFORMER “Avenged Sevenfold”
INDEX 00 04:01:37
FILE “05 – Until the End.wav” WAVE
INDEX 01 00:00:00
TRACK 06 AUDIO
TITLE “Tension”
PERFORMER “Avenged Sevenfold”
INDEX 00 04:44:35
FILE “06 – Tension.wav” WAVE
INDEX 01 00:00:00
TRACK 07 AUDIO
TITLE “Walk (Pantera)”
PERFORMER “Avenged Sevenfold”
INDEX 00 04:50:24
FILE “07 – Walk (Pantera).wav” WAVE
INDEX 01 00:00:00
TRACK 08 AUDIO
TITLE “The Fight”
PERFORMER “Avenged Sevenfold”
INDEX 00 05:20:66
FILE “08 – The Fight.wav” WAVE
INDEX 01 00:00:00
TRACK 09 AUDIO
TITLE “Dancing Dead”
PERFORMER “Avenged Sevenfold”
INDEX 00 04:07:15
FILE “09 – Dancing Dead.wav” WAVE
INDEX 01 00:00:00
TRACK 10 AUDIO
TITLE “Almost Easy (CLA Mix)”
PERFORMER “Avenged Sevenfold”
INDEX 00 05:48:35
FILE “10 – Almost Easy (CLA Mix).wav” WAVE
INDEX 01 00:00:00
TRACK 11 AUDIO
TITLE “Afterlife (Alternate Version)”
PERFORMER “Avenged Sevenfold”
INDEX 00 03:52:71
FILE “11 – Afterlife (Alternate Version).wav” WAVE
INDEX 01 00:00:00


Leave a Reply

Your email address will not be published. Required fields are marked *

Enter the text from the image below
 

This site uses Akismet to reduce spam. Learn how your comment data is processed.