Avenged Sevenfold – Diamonds in the Rough




No Cover available

Artist: Avenged Sevenfold
Year: 2020
Genre: Metal
Notes: Discogs
Add. Notes:
Watch Songs on: YouTube
Cover incl.: No
Encoder: FLAC
Bitrate: ~1000 kBit/s (44.1 kHz/16 Bit/s)
Log & Cue incl.: Yes/Yes
Size: 549,5 MB
Password: “slam” (without ” “)


All Downloads/Hosters are compatible

Download 1
KatFile.com
Turbobit.net
Rapidgator.net
FileFactory.com
Download 2
KatFile.com
Turbobit.net
Rapidgator.net
FileFactory.com

Tracklist:

01. Demons
02. Girl I Know
03. Crossroads
04. Flash Of The Blade (Iron Maiden Cover)
05. Until The End
06. Tension
07. Walk (Pantera Cover)
08. The Fight
09. Dancing Dead
10. Almost Easy (CLA Mix)
11. Afterlife (Alternate Version)
12. St. James (bonus track on Hail To The King limited 
edition)
13. Set Me Free (unreleased; recorded during the Hail To 
The King sessions)
14. 4 AM (B-side on the Welcome to the Family EP)
15. Lost It All (Bonus track on Japanese edition of 
Nightmare)
16. Paranoid (Black Sabbath cover)

EAC-Log, CUE-Sheed & NFO:

Click to open spoiler
CUE Corrector v. 8.3.6 / b. 962 (Feb. 01, 2020)
————————————————————————————————————————————————————————————————————————
Avenged Sevenfold / Diamonds in the Rough

Folder: Avenged Sevenfold – 2020 – Diamonds In The Rough [FLAC]
Audio files:
01 Demons.flac [06:11.840; FLAC • 970 kbps • 16 bit \ 44100 Hz • stereo; 43,00 MB (45 092 009 B)]
02 Girl I Know.flac [04:24.040; FLAC • 1017 kbps • 16 bit \ 44100 Hz • stereo; 32,02 MB (33 573 000 B)]
03 Crossroads.flac [04:29.653; FLAC • 1053 kbps • 16 bit \ 44100 Hz • stereo; 33,85 MB (35 493 639 B)]
04 Flash of the Blade.flac [04:01.707; FLAC • 992 kbps • 16 bit \ 44100 Hz • stereo; 28,59 MB (29 974 194 B)]
05 Until the End.flac [04:45.613; FLAC • 950 kbps • 16 bit \ 44100 Hz • stereo; 32,37 MB (33 938 970 B)]
06 Tension.flac [04:49.627; FLAC • 961 kbps • 16 bit \ 44100 Hz • stereo; 33,19 MB (34 804 273 B)]
07 Walk.flac [05:21.613; FLAC • 1070 kbps • 16 bit \ 44100 Hz • stereo; 41,04 MB (43 037 958 B)]
08 The Fight.flac [04:07.387; FLAC • 1013 kbps • 16 bit \ 44100 Hz • stereo; 29,90 MB (31 350 799 B)]
09 Dancing Dead.flac [05:51.587; FLAC • 937 kbps • 16 bit \ 44100 Hz • stereo; 39,28 MB (41 193 304 B)]
10 Almost Easy (Chris Lord-Alge Mix).flac [03:53.773; FLAC • 1037 kbps • 16 bit \ 44100 Hz • stereo; 28,92 MB (30 323 518 B)]
11 Afterlife (Alternate Version).flac [05:53.440; FLAC • 950 kbps • 16 bit \ 44100 Hz • stereo; 40,04 MB (41 982 239 B)]
12 St. James.flac [05:02.400; FLAC • 1036 kbps • 16 bit \ 44100 Hz • stereo; 37,36 MB (39 172 954 B)]
13 Set Me Free.flac [06:21.213; FLAC • 947 kbps • 16 bit \ 44100 Hz • stereo; 43,07 MB (45 161 280 B)]
14 400 AM.flac [05:00.547; FLAC • 1032 kbps • 16 bit \ 44100 Hz • stereo; 37,01 MB (38 804 780 B)]
15 Lost It All.flac [03:51.853; FLAC • 1023 kbps • 16 bit \ 44100 Hz • stereo; 28,29 MB (29 666 063 B)]
16 Paranoid.flac [02:43.053; FLAC • 1110 kbps • 16 bit \ 44100 Hz • stereo; 21,59 MB (22 640 218 B)]

Accuracy: -m3

File 01 Demons – 100% CDDA [06:11:63]
File 02 Girl I Know – 100% CDDA [04:24:03]
File 03 Crossroads – 100% CDDA [04:29:49]
File 04 Flash of the Blade – 100% CDDA [04:01:53]
File 05 Until the End – 100% CDDA [04:45:46]
File 06 Tension – 100% CDDA [04:49:47]
File 07 Walk – 99% CDDA [05:21:46]
File 08 The Fight – 99% CDDA [04:07:29]
File 09 Dancing Dead – 100% CDDA [05:51:44]
File 10 Almost Easy (Chris Lord-Alge Mix) – 100% CDDA [03:53:58]
File 11 Afterlife (Alternate Version) – 100% CDDA [05:53:33]
File 12 St. James – 100% CDDA [05:02:30]
File 13 Set Me Free – 100% CDDA [06:21:16]
File 14 400 AM – 100% CDDA [05:00:41]
File 15 Lost It All – 100% CDDA [03:51:64]
File 16 Paranoid – 100% CDDA [02:43:04]
————— Summary: —————
These tracks looks like CDDA with probability 100%.
————————————————————————————————————————————————————————————————————————

ANALYZER:
auCDtect: CD records authenticity detector, version 0.8.2
Copyright (c) 2004 Oleg Berngardt. All rights reserved.
Copyright (c) 2004 Alexander Djourik. All rights reserved.

Time elapsed: 1 m 07 s
Log created at February 06, 2020 15:29:33

=== E3FA7A83BD8D7CFBFBBB643994767BDD6BE013A03549E722C802FE2C3DC9B37E ===

[CUETools log; Date: 06.02.2020 15:42:56; Version: 2.1.6]
Padded some input files to a frame boundary.
[CTDB TOCID: ay_fS8juKZX9AqRs_DgX1DxFbmg-] disk not present in database.
[AccurateRip ID: 002dcc18-0225381a-ea120110] disk not present in database.

Track Peak [ CRC32 ] [W/O NULL]
— 100,0 [9798A0A9] [9EC41735]
01 100,0 [F49C00F7] [BAFD52B8]
02 100,0 [A46CB5F9] [462FE0D2]
03 98,8 [72B6C90A] [F4343441]
04 60,7 [2806FC37] [38A9934E]
05 100,0 [5CD5B7BA] [35F14BF9]
06 100,0 [E7814FAD] [CCC9B49C]
07 100,0 [809A926D] [2FA46C83]
08 100,0 [E40768AB] [E977745E]
09 100,0 [84DB8D96] [A535E579]
10 95,2 [773C9766] [341C4305]
11 100,0 [4E35B383] [AA857553]
12 100,0 [4366BA5A] [EA87D5DC]
13 100,0 [BA8D2663] [EEDD25A2]
14 100,0 [297A30EA] [D22B69F0]
15 100,0 [4E0A9ED8] [44513CD0]
16 99,9 [22FC2476] [08A104A8]

foobar2000 1.5.1 / Замер динамического диапазона (DR) 1.1.1
Дата отчёта: 2020-02-06 15:41:10

——————————————————————————–
Анализ: Avenged Sevenfold / Diamonds in the Rough
——————————————————————————–

DR Пики RMS Продолжительность трека
——————————————————————————–
DR10 0.00 дБ -10.74 дБ 6:12 01-Demons
DR10 0.00 дБ -11.00 дБ 4:24 02-Girl I Know
DR6 -0.10 дБ -6.42 дБ 4:30 03-Crossroads
DR6 -4.33 дБ -11.35 дБ 4:02 04-Flash of the Blade
DR10 0.00 дБ -10.94 дБ 4:46 05-Until the End
DR9 0.00 дБ -10.57 дБ 4:50 06-Tension
DR10 0.00 дБ -11.20 дБ 5:22 07-Walk
DR10 0.00 дБ -10.56 дБ 4:07 08-The Fight
DR10 0.00 дБ -12.04 дБ 5:52 09-Dancing Dead
DR9 -0.42 дБ -10.24 дБ 3:54 10-Almost Easy (Chris Lord-Alge Mix)
DR10 0.00 дБ -10.98 дБ 5:53 11-Afterlife (Alternate Version)
DR10 0.00 дБ -11.44 дБ 5:02 12-St. James
DR10 0.00 дБ -12.43 дБ 6:21 13-Set Me Free
DR6 0.00 дБ -7.54 дБ 5:01 14-4:00 AM
DR10 0.00 дБ -10.68 дБ 3:52 15-Lost It All
DR5 0.00 дБ -5.75 дБ 2:43 16-Paranoid
——————————————————————————–

Количество треков: 16
Реальные значения DR: DR9

Частота: 44100 Гц
Каналов: 2
Разрядность: 16
Битрейт: 1072 кбит/с
Кодек: FLAC
================================================================================


Leave a Reply

Your email address will not be published. Required fields are marked *

Enter the text from the image below
 

This site uses Akismet to reduce spam. Learn how your comment data is processed.