Avenged Sevenfold – City Of Evil (Clean Edition)




Artist: Avenged Sevenfold
Year: 2005
Genre: Hardcore
Notes: Discogs
Add. Notes:
Cover incl.: Yes
Encoder: FLAC
Bitrate: ~1000 kBit/s (44.1 kHz/16 Bit/s)
Log & Cue incl.: Yes
Size: 535,89 MB
Password: “slam” (without ” “)


All Downloads/Hosters are compatible

Download 1
Turbobit.net
Rapidgator.net
KatFile.com
UploadRar.com
Download 2
Turbobit.net
Rapidgator.net
KatFile.com
UploadRar.com

Tracklist:

1 - Beast And The Harlot - 5:41
2 - Burn It Down - 4:59
3 - Blinded In Chains - 6:34
4 - Bat Country - 5:13
5 - Trashed And Scattered - 5:53
6 - Seize The Day - 5:33
7 - Sidewinder - 7:02
8 - The Wicked End - 7:11
9 - Strength Of The World - 9:15
10 - Betrayed - 6:48
11 - M.I.A. - 8:46

EAC-Log, CUE-Sheed & NFO:

Click to open spoiler
Exact Audio Copy V0.99 prebeta 3 from 28. July 2007

EAC extraction logfile from 16. February 2009, 0:08

Avenged Sevenfold / City of Evil

Used drive : TEAC CD-W54E Adapter: 1 ID: 1

Read mode : Secure
Utilize accurate stream : Yes
Defeat audio cache : Yes
Make use of C2 pointers : No

Read offset correction : 685
Overread into Lead-In and Lead-Out : No
Fill up missing offset samples with silence : Yes
Delete leading and trailing silent blocks : No
Null samples used in CRC calculations : Yes
Used interface : Native Win32 interface for Win NT & 2000
Gap handling : Appended to previous track

Used output format : User Defined Encoder
Selected bitrate : 192 kBit/s
Quality : High
Add ID3 tag : No
Command line compressor : C:\Program Files\Exact Audio Copy\flac.exe
Additional command line options : -V -5 -T “artist=%a” -T “title=%t” -T “album=%g” -T “date=%y” -T “tracknumber=%n” -T “genre=%m” %s

TOC of the extracted CD

Track | Start | Length | Start sector | End sector
———————————————————
1 | 0:00.00 | 5:40.58 | 0 | 25557
2 | 5:40.58 | 4:58.61 | 25558 | 47968
3 | 10:39.44 | 6:34.35 | 47969 | 77553
4 | 17:14.04 | 5:12.68 | 77554 | 101021
5 | 22:26.72 | 5:53.20 | 101022 | 127516
6 | 28:20.17 | 5:33.03 | 127517 | 152494
7 | 33:53.20 | 7:01.49 | 152495 | 184118
8 | 40:54.69 | 7:10.42 | 184119 | 216410
9 | 48:05.36 | 9:14.63 | 216411 | 258023
10 | 57:20.24 | 6:47.17 | 258024 | 288565
11 | 64:07.41 | 8:46.28 | 288566 | 328043

Track 1

Filename C:\Documents and Settings\Tommy\My Documents\rip\Avenged Sevenfold – City of Evil\01 – Beast and the Harlot – Avenged Sevenfold.wav

Pre-gap length 0:00:02.00

Peak level 97.7 %
Track quality 100.0 %
Test CRC 458AA883
Copy CRC 458AA883
Accurately ripped (confidence 1) [71A982BA]
Copy OK

Track 2

Filename C:\Documents and Settings\Tommy\My Documents\rip\Avenged Sevenfold – City of Evil\02 – Burn it Down – Avenged Sevenfold.wav

Peak level 98.8 %
Track quality 100.0 %
Test CRC 2A3A5908
Copy CRC 2A3A5908
Accurately ripped (confidence 1) [66787059]
Copy OK

Track 3

Filename C:\Documents and Settings\Tommy\My Documents\rip\Avenged Sevenfold – City of Evil\03 – Blind in Chains – Avenged Sevenfold.wav

Peak level 98.8 %
Track quality 99.9 %
Test CRC DF42A2D4
Copy CRC DF42A2D4
Accurately ripped (confidence 1) [1B6471A4]
Copy OK

Track 4

Filename C:\Documents and Settings\Tommy\My Documents\rip\Avenged Sevenfold – City of Evil\04 – Bat Country – Avenged Sevenfold.wav

Peak level 97.7 %
Track quality 100.0 %
Test CRC 2E7096B4
Copy CRC 2E7096B4
Accurately ripped (confidence 1) [0156683E]
Copy OK

Track 5

Filename C:\Documents and Settings\Tommy\My Documents\rip\Avenged Sevenfold – City of Evil\05 – Trashed and Scattered – Avenged Sevenfold.wav

Pre-gap length 0:00:00.94

Peak level 98.8 %
Track quality 100.0 %
Test CRC 3BAA97DE
Copy CRC 3BAA97DE
Accurately ripped (confidence 1) [CF8B3581]
Copy OK

Track 6

Filename C:\Documents and Settings\Tommy\My Documents\rip\Avenged Sevenfold – City of Evil\06 – Seize the day – Avenged Sevenfold.wav

Pre-gap length 0:00:01.33

Peak level 97.7 %
Track quality 99.9 %
Test CRC BE599C0A
Copy CRC BE599C0A
Accurately ripped (confidence 1) [4AA6F3F0]
Copy OK

Track 7

Filename C:\Documents and Settings\Tommy\My Documents\rip\Avenged Sevenfold – City of Evil\07 – Sidewinder – Avenged Sevenfold.wav

Peak level 97.7 %
Track quality 100.0 %
Test CRC 4307AE47
Copy CRC 4307AE47
Accurately ripped (confidence 1) [19C61F1D]
Copy OK

Track 8

Filename C:\Documents and Settings\Tommy\My Documents\rip\Avenged Sevenfold – City of Evil\08 – The Wicked End – Avenged Sevenfold.wav

Peak level 97.7 %
Track quality 100.0 %
Test CRC 9C6C2757
Copy CRC 9C6C2757
Accurately ripped (confidence 1) [6F849C4E]
Copy OK

Track 9

Filename C:\Documents and Settings\Tommy\My Documents\rip\Avenged Sevenfold – City of Evil\09 – Strength of the World – Avenged Sevenfold.wav

Pre-gap length 0:00:00.32

Peak level 97.7 %
Track quality 100.0 %
Test CRC 7FBD9B38
Copy CRC 7FBD9B38
Accurately ripped (confidence 1) [C06B944A]
Copy OK

Track 10

Filename C:\Documents and Settings\Tommy\My Documents\rip\Avenged Sevenfold – City of Evil\10 – Betrayed – Avenged Sevenfold.wav

Peak level 97.7 %
Track quality 100.0 %
Test CRC 48CE579E
Copy CRC 48CE579E
Accurately ripped (confidence 1) [08123E76]
Copy OK

Track 11

Filename C:\Documents and Settings\Tommy\My Documents\rip\Avenged Sevenfold – City of Evil\11 – M.I.A. – Avenged Sevenfold.wav

Pre-gap length 0:00:00.70

Peak level 97.7 %
Track quality 100.0 %
Test CRC 7F368C82
Copy CRC 7F368C82
Accurately ripped (confidence 1) [CC51C1A8]
Copy OK

All tracks accurately ripped

No errors occurred

End of status report

REM GENRE “Hard Rock”
REM DATE 2005
REM DISCID 9311150B
REM COMMENT “ExactAudioCopy v0.99pb3”
PERFORMER “Avenged Sevenfold”
TITLE “City of Evil”
FILE “01 – Beast and the Harlot – Avenged Sevenfold.wav” WAVE
TRACK 01 AUDIO
TITLE “Beast and the Harlot”
PERFORMER “Avenged Sevenfold”
INDEX 01 00:00:00
FILE “02 – Burn it Down – Avenged Sevenfold.wav” WAVE
TRACK 02 AUDIO
TITLE “Burn it Down”
PERFORMER “Avenged Sevenfold”
INDEX 01 00:00:00
FILE “03 – Blind in Chains – Avenged Sevenfold.wav” WAVE
TRACK 03 AUDIO
TITLE “Blind in Chains”
PERFORMER “Avenged Sevenfold”
INDEX 01 00:00:00
FILE “04 – Bat Country – Avenged Sevenfold.wav” WAVE
TRACK 04 AUDIO
TITLE “Bat Country”
PERFORMER “Avenged Sevenfold”
INDEX 01 00:00:00
TRACK 05 AUDIO
TITLE “Trashed and Scattered”
PERFORMER “Avenged Sevenfold”
INDEX 00 05:11:72
FILE “05 – Trashed and Scattered – Avenged Sevenfold.wav” WAVE
INDEX 01 00:00:00
TRACK 06 AUDIO
TITLE “Seize the day”
PERFORMER “Avenged Sevenfold”
INDEX 00 05:51:70
FILE “06 – Seize the day – Avenged Sevenfold.wav” WAVE
INDEX 01 00:00:00
FILE “07 – Sidewinder – Avenged Sevenfold.wav” WAVE
TRACK 07 AUDIO
TITLE “Sidewinder”
PERFORMER “Avenged Sevenfold”
INDEX 01 00:00:00
FILE “08 – The Wicked End – Avenged Sevenfold.wav” WAVE
TRACK 08 AUDIO
TITLE “The Wicked End”
PERFORMER “Avenged Sevenfold”
INDEX 01 00:00:00
TRACK 09 AUDIO
TITLE “Strength of the World”
PERFORMER “Avenged Sevenfold”
INDEX 00 07:10:18
FILE “09 – Strength of the World – Avenged Sevenfold.wav” WAVE
INDEX 01 00:00:00
FILE “10 – Betrayed – Avenged Sevenfold.wav” WAVE
TRACK 10 AUDIO
TITLE “Betrayed”
PERFORMER “Avenged Sevenfold”
INDEX 01 00:00:00
TRACK 11 AUDIO
TITLE “M.I.A.”
PERFORMER “Avenged Sevenfold”
INDEX 00 06:46:39
FILE “11 – M.I.A. – Avenged Sevenfold.wav” WAVE
INDEX 01 00:00:00


Leave a Reply

Your email address will not be published. Required fields are marked *

This site uses Akismet to reduce spam. Learn how your comment data is processed.