Avenged Sevenfold – Avenged Sevenfold




Artist: Avenged Sevenfold
Year: 2007
Genre: Rock
Notes: Discogs
Add. Notes:
Cover incl.: Yes
Encoder: FLAC
Bitrate: ~1000 kBit/s (44.1 kHz/16 Bit/s)
Log & Cue incl.: Yes
Size: 392,18 MB
Password: “slam” (without ” “)


All Downloads/Hosters are compatible

Download 1
Turbobit.net
Rapidgator.net
KatFile.com
UploadRar.com
Download 2
Turbobit.net
Rapidgator.net
KatFile.com
UploadRar.com
Download 3
Turbobit.net
Rapidgator.net
KatFile.com
UploadRar.com

Tracklist:

1 - Critical Acclaim - 5:14
2 - Almost Easy - 3:53
3 - Scream - 4:48
4 - Afterlife - 5:52
5 - Gunslinger - 4:12
6 - Unbound (The Wild Ride) - 5:12
7 - Brompton Cocktail - 4:13
8 - Lost - 5:02
9 - A Little Piece Of Heaven - 8:01
10 - Dear God - 6:34

EAC-Log, CUE-Sheed & NFO:

Click to open spoiler
Exact Audio Copy V0.99 prebeta 3 from 28. July 2007

EAC extraction logfile from 3. March 2008, 9:34

Avenged Sevenfold / Avenged Sevenfold

Used drive : ASUS DRW-1814BLT Adapter: 6 ID: 0

Read mode : Secure
Utilize accurate stream : Yes
Defeat audio cache : Yes
Make use of C2 pointers : No

Read offset correction : 6
Overread into Lead-In and Lead-Out : No
Fill up missing offset samples with silence : Yes
Delete leading and trailing silent blocks : No
Null samples used in CRC calculations : Yes
Used interface : Native Win32 interface for Win NT & 2000
Gap handling : Appended to previous track

Used output format : User Defined Encoder
Selected bitrate : 320 kBit/s
Quality : High
Add ID3 tag : No
Command line compressor : C:\Program Files (x86)\Exact Audio Copy\flac-1.1.3-win\bin\flac.exe
Additional command line options : -8 -A tukey(0.25) -A gauss(0.1875) -b 4096 -V -T “artist=%a” -T “title=%t” -T “album=%g” -T “date=%y” -T “tracknumber=%n” -T “genre=%m” %s –sector-align

TOC of the extracted CD

Track | Start | Length | Start sector | End sector
———————————————————
1 | 0:00.00 | 5:14.53 | 0 | 23602
2 | 5:14.53 | 3:54.50 | 23603 | 41202
3 | 9:09.28 | 4:48.18 | 41203 | 62820
4 | 13:57.46 | 5:53.30 | 62821 | 89325
5 | 19:51.01 | 4:11.40 | 89326 | 108190
6 | 24:02.41 | 5:11.65 | 108191 | 131580
7 | 29:14.31 | 4:13.12 | 131581 | 150567
8 | 33:27.43 | 5:02.60 | 150568 | 173277
9 | 38:30.28 | 8:00.52 | 173278 | 209329
10 | 46:31.05 | 6:33.38 | 209330 | 238842

Track 1

Filename C:\Users\jack\Music\Avenged Sevenfold – Avenged Sevenfold\Avenged Sevenfold – Avenged Sevenfold – 01 – Critical Acclaim – Avenged Sevenfold.wav

Pre-gap length 0:00:02.00

Peak level 96.5 %
Track quality 100.0 %
Test CRC A58345E3
Copy CRC A58345E3
Accurately ripped (confidence 5) [F809987D]
Copy OK

Track 2

Filename C:\Users\jack\Music\Avenged Sevenfold – Avenged Sevenfold\Avenged Sevenfold – Avenged Sevenfold – 02 – Almost Easy – Avenged Sevenfold.wav

Pre-gap length 0:00:00.36

Peak level 99.9 %
Track quality 100.0 %
Test CRC FBA5E769
Copy CRC FBA5E769
Accurately ripped (confidence 5) [1A0608F7]
Copy OK

Track 3

Filename C:\Users\jack\Music\Avenged Sevenfold – Avenged Sevenfold\Avenged Sevenfold – Avenged Sevenfold – 03 – Scream – Avenged Sevenfold.wav

Pre-gap length 0:00:01.68

Peak level 100.0 %
Track quality 99.9 %
Test CRC A7944AC6
Copy CRC A7944AC6
Accurately ripped (confidence 5) [99A31712]
Copy OK

Track 4

Filename C:\Users\jack\Music\Avenged Sevenfold – Avenged Sevenfold\Avenged Sevenfold – Avenged Sevenfold – 04 – Afterlife – Avenged Sevenfold.wav

Peak level 100.0 %
Track quality 100.0 %
Test CRC B770FA17
Copy CRC B770FA17
Accurately ripped (confidence 5) [7DD181AF]
Copy OK

Track 5

Filename C:\Users\jack\Music\Avenged Sevenfold – Avenged Sevenfold\Avenged Sevenfold – Avenged Sevenfold – 05 – Gunslinger – Avenged Sevenfold.wav

Pre-gap length 0:00:01.82

Peak level 100.0 %
Track quality 100.0 %
Test CRC A5AC19C4
Copy CRC A5AC19C4
Accurately ripped (confidence 5) [37D44B9B]
Copy OK

Track 6

Filename C:\Users\jack\Music\Avenged Sevenfold – Avenged Sevenfold\Avenged Sevenfold – Avenged Sevenfold – 06 – Unbound (The Wild Ride) – Avenged Sevenfold.wav

Peak level 100.0 %
Track quality 100.0 %
Test CRC 219473EE
Copy CRC 219473EE
Accurately ripped (confidence 5) [2ED7BD3D]
Copy OK

Track 7

Filename C:\Users\jack\Music\Avenged Sevenfold – Avenged Sevenfold\Avenged Sevenfold – Avenged Sevenfold – 07 – Brompton Cocktail – Avenged Sevenfold.wav

Peak level 100.0 %
Track quality 100.0 %
Test CRC 9ED1E5A4
Copy CRC 9ED1E5A4
Accurately ripped (confidence 5) [CCAC93DD]
Copy OK

Track 8

Filename C:\Users\jack\Music\Avenged Sevenfold – Avenged Sevenfold\Avenged Sevenfold – Avenged Sevenfold – 08 – Lost – Avenged Sevenfold.wav

Pre-gap length 0:00:00.52

Peak level 100.0 %
Track quality 100.0 %
Test CRC 3B8E5376
Copy CRC 3B8E5376
Accurately ripped (confidence 5) [C7C04478]
Copy OK

Track 9

Filename C:\Users\jack\Music\Avenged Sevenfold – Avenged Sevenfold\Avenged Sevenfold – Avenged Sevenfold – 09 – A Little Piece Of Heaven – Avenged Sevenfold.wav

Pre-gap length 0:00:01.29

Peak level 100.0 %
Track quality 100.0 %
Test CRC F896F3A2
Copy CRC F896F3A2
Accurately ripped (confidence 5) [9B885B9C]
Copy OK

Track 10

Filename C:\Users\jack\Music\Avenged Sevenfold – Avenged Sevenfold\Avenged Sevenfold – Avenged Sevenfold – 10 – Dear God – Avenged Sevenfold.wav

Peak level 100.0 %
Track quality 99.9 %
Test CRC 17C4068C
Copy CRC 17C4068C
Accurately ripped (confidence 4) [A0B92932]
Copy OK

All tracks accurately ripped

No errors occurred

End of status report

REM GENRE “Metal”
REM DATE 2007
REM DISCID 810C700A
REM COMMENT “ExactAudioCopy v0.99pb3”
PERFORMER “Avenged Sevenfold”
TITLE “Avenged Sevenfold”
FILE “01 Critical Acclaim.wav” WAVE
TRACK 01 AUDIO
TITLE “Critical Acclaim”
PERFORMER “Avenged Sevenfold”
INDEX 01 00:00:00
TRACK 02 AUDIO
TITLE “Almost Easy”
PERFORMER “Avenged Sevenfold”
INDEX 00 05:14:26
FILE “02 Almost Easy.wav” WAVE
INDEX 01 00:00:00
TRACK 03 AUDIO
TITLE “Scream”
PERFORMER “Avenged Sevenfold”
INDEX 00 03:52:74
FILE “03 Scream.wav” WAVE
INDEX 01 00:00:00
FILE “04 Afterlife.wav” WAVE
TRACK 04 AUDIO
TITLE “Afterlife”
PERFORMER “Avenged Sevenfold”
INDEX 01 00:00:00
TRACK 05 AUDIO
TITLE “Gunslinger”
PERFORMER “Avenged Sevenfold”
INDEX 00 05:51:43
FILE “05 Gunslinger.wav” WAVE
INDEX 01 00:00:00
FILE “06 Unbound (The Wild Ride).wav” WAVE
TRACK 06 AUDIO
TITLE “Unbound (The Wild Ride)”
PERFORMER “Avenged Sevenfold”
INDEX 01 00:00:00
FILE “07 Brompton Cocktail.wav” WAVE
TRACK 07 AUDIO
TITLE “Brompton Cocktail”
PERFORMER “Avenged Sevenfold”
INDEX 01 00:00:00
TRACK 08 AUDIO
TITLE “Lost”
PERFORMER “Avenged Sevenfold”
INDEX 00 04:12:48
FILE “08 Lost.wav” WAVE
INDEX 01 00:00:00
TRACK 09 AUDIO
TITLE “A Little Piece Of Heaven”
PERFORMER “Avenged Sevenfold”
INDEX 00 05:01:38
FILE “09 A Little Piece Of Heaven.wav” WAVE
INDEX 01 00:00:00
FILE “10 Dear God.wav” WAVE
TRACK 10 AUDIO
TITLE “Dear God”
PERFORMER “Avenged Sevenfold”
INDEX 01 00:00:00


Leave a Reply

Your email address will not be published. Required fields are marked *

Enter the text from the image below
 

This site uses Akismet to reduce spam. Learn how your comment data is processed.