Audioslave – Out Of Exile (Japanese Edition)




Artist: Audioslave
Year: 2005
Genre: Rock
Notes: Discogs
Add. Notes: Japanese Edition
Cover incl.: Yes
Encoder: FLAC
Bitrate: ~1000 kBit/s (44.1 kHz/16 Bit/s)
Log & Cue incl.: Yes
Size: 490 MB
Password: “slam” (without ” “)


All Downloads/Hosters are compatible

Download 1
KatFile.com
Turbobit.net
Rapidgator.net
Turbobit.net
Download 2
KatFile.com
Turbobit.net
Rapidgator.net
Turbobit.net

Tracklist:

1 - Your Time Has Come - 4:15
2 - Out Of Exile - 4:51
3 - Be Yourself - 4:39
4 - Doesn't Remind Me - 4:15
5 - Drown Me Slowly - 3:53
6 - Heaven's Dead - 4:36
7 - The Worm - 3:57
8 - Man Or Animal - 3:53
9 - Yesterday To Tomorrow - 4:33
10 - Dandelion - 4:38
11 - #1 Zero - 4:59
12 - The Curse - 5:09
Bonus Tracks:
13 - Super Stupid - 3:27
14 - Like A Stone (Live) - 4:22

EAC-Log, CUE-Sheed & NFO:

Click to open spoiler
REM GENRE Rock
REM DATE 2005
REM DISCID C20E770E
REM COMMENT “ExactAudioCopy v0.99pb5”
CATALOG 0602498824672
PERFORMER “Audioslave”
TITLE “Out Of Exile [Japanese Version]”
FILE “01 – Your Time Has Come.wav” WAVE
TRACK 01 AUDIO
TITLE “Your Time Has Come”
PERFORMER “Audioslave”
ISRC USIR10500787
INDEX 01 00:00:00
FILE “02 – Out Of Exile.wav” WAVE
TRACK 02 AUDIO
TITLE “Out Of Exile”
PERFORMER “Audioslave”
ISRC USIR10500783
INDEX 01 00:00:00
TRACK 03 AUDIO
TITLE “Be Yourself”
PERFORMER “Audioslave”
ISRC USIR10500509
INDEX 00 04:48:38
FILE “03 – Be Yourself.wav” WAVE
INDEX 01 00:00:00
TRACK 04 AUDIO
TITLE “Doesn’t Remind Me”
PERFORMER “Audioslave”
ISRC USIR10500779
INDEX 00 04:38:73
FILE “04 – Doesn’t Remind Me.wav” WAVE
INDEX 01 00:00:00
TRACK 05 AUDIO
TITLE “Drown Me Slowly”
PERFORMER “Audioslave”
ISRC USIR10500780
INDEX 00 04:15:00
FILE “05 – Drown Me Slowly.wav” WAVE
INDEX 01 00:00:00
FILE “06 – Heaven’s Dead.wav” WAVE
TRACK 06 AUDIO
TITLE “Heaven’s Dead”
PERFORMER “Audioslave”
ISRC USIR10500781
INDEX 01 00:00:00
TRACK 07 AUDIO
TITLE “The Worm”
PERFORMER “Audioslave”
ISRC USIR10500785
INDEX 00 04:36:12
FILE “07 – The Worm.wav” WAVE
INDEX 01 00:00:00
TRACK 08 AUDIO
TITLE “Man Or Animal”
PERFORMER “Audioslave”
ISRC USIR10500782
INDEX 00 03:56:50
FILE “08 – Man Or Animal.wav” WAVE
INDEX 01 00:00:00
TRACK 09 AUDIO
TITLE “Yesterday To Tomorrow”
PERFORMER “Audioslave”
ISRC USIR10500786
INDEX 00 03:52:33
FILE “09 – Yesterday To Tomorrow.wav” WAVE
INDEX 01 00:00:00
FILE “10 – Dandelion.wav” WAVE
TRACK 10 AUDIO
TITLE “Dandelion”
PERFORMER “Audioslave”
ISRC USIR10500778
INDEX 01 00:00:00
FILE “11 – #1 Zero.wav” WAVE
TRACK 11 AUDIO
TITLE “#1 Zero”
PERFORMER “Audioslave”
ISRC USIR10500777
INDEX 01 00:00:00
FILE “12 – The Curse.wav” WAVE
TRACK 12 AUDIO
TITLE “The Curse”
PERFORMER “Audioslave”
ISRC USIR10500784
INDEX 01 00:00:00
TRACK 13 AUDIO
TITLE “Super Stupid [Bonus Track]”
PERFORMER “Audioslave”
ISRC USIR10500760
INDEX 00 05:09:43
FILE “13 – Super Stupid [Bonus Track].wav” WAVE
INDEX 01 00:00:00
TRACK 14 AUDIO
TITLE “Like A Stone (Live) [Bonus Track]”
PERFORMER “Audioslave”
ISRC USIR10500758
INDEX 00 03:24:15
FILE “14 – Like A Stone (Live) [Bonus Track].wav” WAVE
INDEX 01 00:00:00

Exact Audio Copy V0.99 prebeta 5 from 4. May 2009

EAC extraction logfile from 19. May 2010, 2:56

Audioslave / Out Of Exile [Japanese Version]

Used drive : PLEXTOR CD-R PREMIUM Adapter: 0 ID: 1

Read mode : Secure
Utilize accurate stream : Yes
Defeat audio cache : Yes
Make use of C2 pointers : No

Read offset correction : 30
Overread into Lead-In and Lead-Out : Yes
Fill up missing offset samples with silence : Yes
Delete leading and trailing silent blocks : No
Null samples used in CRC calculations : Yes
Used interface : Native Win32 interface for Win NT & 2000
Gap handling : Appended to previous track

Used output format : User Defined Encoder
Selected bitrate : 128 kBit/s
Quality : High
Add ID3 tag : No
Command line compressor : C:\Program Files\FLAC 1.2.1b\flac.exe
Additional command line options : -8 -V -T “ARTIST=%a” -T “TITLE=%t” -T “ALBUM=%g” -T “DATE=%y” -T “TRACKNUMBER=%n” -T “TOTALTRACKS=%x” -T “GENRE=%m” -T “ALBUM ARTIST=%v” -T “ALBUMARTIST=%v” %s

TOC of the extracted CD

Track | Start | Length | Start sector | End sector
———————————————————
1 | 0:00.00 | 4:15.32 | 0 | 19156
2 | 4:15.32 | 4:51.15 | 19157 | 40996
3 | 9:06.47 | 4:39.30 | 40997 | 61951
4 | 13:46.02 | 4:15.58 | 61952 | 81134
5 | 18:01.60 | 3:53.45 | 81135 | 98654
6 | 21:55.30 | 4:36.45 | 98655 | 119399
7 | 26:32.00 | 3:57.47 | 119400 | 137221
8 | 30:29.47 | 3:53.08 | 137222 | 154704
9 | 34:22.55 | 4:33.50 | 154705 | 175229
10 | 38:56.30 | 4:38.02 | 175230 | 196081
11 | 43:34.32 | 4:59.08 | 196082 | 218514
12 | 48:33.40 | 5:19.46 | 218515 | 242485
13 | 53:53.11 | 3:27.64 | 242486 | 258074
14 | 57:21.00 | 4:22.17 | 258075 | 277741

Track 1

Filename C:\EAC Output\Audioslave – 2005 – Out Of Exile [Japanese Version]\01 – Your Time Has Come.wav

Pre-gap length 0:00:02.00

Peak level 97.2 %
Track quality 100.0 %
Test CRC A0CB0E90
Copy CRC A0CB0E90
Accurately ripped (confidence 3) [961FFC34]
Copy OK

Track 2

Filename C:\EAC Output\Audioslave – 2005 – Out Of Exile [Japanese Version]\02 – Out Of Exile.wav

Peak level 94.2 %
Track quality 99.9 %
Test CRC BA66BBA6
Copy CRC BA66BBA6
Accurately ripped (confidence 3) [B12BECED]
Copy OK

Track 3

Filename C:\EAC Output\Audioslave – 2005 – Out Of Exile [Japanese Version]\03 – Be Yourself.wav

Pre-gap length 0:00:02.69

Peak level 99.8 %
Track quality 100.0 %
Test CRC 8C79C8D4
Copy CRC 8C79C8D4
Accurately ripped (confidence 3) [5512DA2F]
Copy OK

Track 4

Filename C:\EAC Output\Audioslave – 2005 – Out Of Exile [Japanese Version]\04 – Doesn’t Remind Me.wav

Pre-gap length 0:00:00.42

Peak level 99.8 %
Track quality 100.0 %
Test CRC E6990807
Copy CRC E6990807
Accurately ripped (confidence 3) [D1D4808A]
Copy OK

Track 5

Filename C:\EAC Output\Audioslave – 2005 – Out Of Exile [Japanese Version]\05 – Drown Me Slowly.wav

Pre-gap length 0:00:00.77

Peak level 99.8 %
Track quality 100.0 %
Test CRC 10483261
Copy CRC 10483261
Accurately ripped (confidence 3) [B04149D1]
Copy OK

Track 6

Filename C:\EAC Output\Audioslave – 2005 – Out Of Exile [Japanese Version]\06 – Heaven’s Dead.wav

Peak level 99.8 %
Track quality 99.9 %
Test CRC 69EABD26
Copy CRC 69EABD26
Accurately ripped (confidence 3) [C637A6D3]
Copy OK

Track 7

Filename C:\EAC Output\Audioslave – 2005 – Out Of Exile [Japanese Version]\07 – The Worm.wav

Pre-gap length 0:00:00.44

Peak level 99.8 %
Track quality 100.0 %
Test CRC 240AF631
Copy CRC 240AF631
Accurately ripped (confidence 3) [316173E0]
Copy OK

Track 8

Filename C:\EAC Output\Audioslave – 2005 – Out Of Exile [Japanese Version]\08 – Man Or Animal.wav

Pre-gap length 0:00:00.96

Peak level 99.8 %
Track quality 99.9 %
Test CRC E0D49BF0
Copy CRC E0D49BF0
Accurately ripped (confidence 3) [9C68F205]
Copy OK

Track 9

Filename C:\EAC Output\Audioslave – 2005 – Out Of Exile [Japanese Version]\09 – Yesterday To Tomorrow.wav

Pre-gap length 0:00:00.66

Peak level 99.8 %
Track quality 100.0 %
Test CRC 4B27E1F4
Copy CRC 4B27E1F4
Accurately ripped (confidence 3) [005793E0]
Copy OK

Track 10

Filename C:\EAC Output\Audioslave – 2005 – Out Of Exile [Japanese Version]\10 – Dandelion.wav

Peak level 99.8 %
Track quality 100.0 %
Test CRC 60635342
Copy CRC 60635342
Accurately ripped (confidence 3) [7F00DA00]
Copy OK

Track 11

Filename C:\EAC Output\Audioslave – 2005 – Out Of Exile [Japanese Version]\11 – #1 Zero.wav

Peak level 99.8 %
Track quality 100.0 %
Test CRC B9D447DC
Copy CRC B9D447DC
Accurately ripped (confidence 3) [8B45C430]
Copy OK

Track 12

Filename C:\EAC Output\Audioslave – 2005 – Out Of Exile [Japanese Version]\12 – The Curse.wav

Peak level 99.8 %
Track quality 100.0 %
Test CRC 6A51CED9
Copy CRC 6A51CED9
Accurately ripped (confidence 3) [A72B6F7A]
Copy OK

Track 13

Filename C:\EAC Output\Audioslave – 2005 – Out Of Exile [Japanese Version]\13 – Super Stupid [Bonus Track].wav

Pre-gap length 0:00:10.04

Peak level 98.5 %
Track quality 99.9 %
Test CRC 0103D685
Copy CRC 0103D685
Accurately ripped (confidence 3) [E3D155EF]
Copy OK

Track 14

Filename C:\EAC Output\Audioslave – 2005 – Out Of Exile [Japanese Version]\14 – Like A Stone (Live) [Bonus Track].wav

Pre-gap length 0:00:03.65

Peak level 99.7 %
Track quality 100.0 %
Test CRC FE6F79AF
Copy CRC FE6F79AF
Accurately ripped (confidence 3) [2491ED78]
Copy OK

All tracks accurately ripped

No errors occurred

End of status report


Leave a Reply

Your email address will not be published. Required fields are marked *

Enter the text from the image below
 

This site uses Akismet to reduce spam. Learn how your comment data is processed.