Apocalyptica – Worlds Collide (Special Edition)




Artist: Apocalyptica
Year: 2007
Genre: Metal
Notes: Discogs
Add. Notes: Special Edition
Cover incl.: Yes
Encoder: FLAC
Bitrate: ~1000 kBit/s (44.1 kHz/16 Bit/s)
Log & Cue incl.: Yes
Size: 397 MB
Password: “slam” (without ” “)


All Downloads/Hosters are compatible

Download 1
Turbobit.net
Rapidgator.net
UploadEver.com
KatFile.com
UsersDrive.com
Download 2
Turbobit.net
Rapidgator.net
UploadEver.com
KatFile.com
UsersDrive.com
Download 3
Turbobit.net
Rapidgator.net
UploadEver.com
KatFile.com
UsersDrive.com

Tracklist:

1 - Worlds Collide - 4:28
2 - Grace - 4:09
3 - I'm Not Jesus - 3:34
4 - Ion - 3:46
5 - Helden - 4:18
6 - Stroke - 4:32
7 - Last Hope - 4:47
8 - I Don't Care - 3:57
9 - Burn - 4:16
10 - S.O.S. (Anything But Love) - 4:19
11 - Peace - 5:49
12 - Ural - 5:41
13 - Dreamer - 3:27

EAC-Log, CUE-Sheed & NFO:

Click to open spoiler
EAC extraction logfile from 15. September 2007, 19:40 for CD
Apocalyptica / Worlds Collide (Special Edition)

Used drive : PIONEER DVD RW DVR-108 Adapter: 0 ID: 0
Read mode : Secure with NO C2, accurate stream, disable cache
Read offset correction : 48
Overread into Lead-In and Lead-Out : No

Used output format : Internal WAV Routines
44.100 Hz; 16 Bit; Stereo
Use compression offset : 0

Other options :
Fill up missing offset samples with silence : Yes
Delete leading and trailing silent blocks : No
Installed external ASPI interface

Range status and errors
Selected range
Filename H:\Toasten 2\Apocalyptica – Worlds Collide (Special Edition).wav

Peak level 100.0 %
Range quality 99.9 %
CRC 8CB5516F
Copy OK

No errors occured

End of status report
REM GENRE Metal
REM DATE 2007
REM DISCID A40D860D
PERFORMER “Apocalyptica”
TITLE “Worlds Collide (Special Edition)”
FILE “Apocalyptica – Worlds Collide (Special Edition).flac” WAVE
TRACK 01 AUDIO
TITLE “Worlds Collide”
ISRC GBHQD0700021
INDEX 01 00:00:00
TRACK 02 AUDIO
TITLE “Grace”
ISRC GBHQD0700022
INDEX 01 04:28:17
TRACK 03 AUDIO
TITLE “I’m Not Jesus”
ISRC GBHQD0700017
INDEX 01 08:37:61
TRACK 04 AUDIO
TITLE “Ion”
ISRC GBHQD0700023
INDEX 01 12:12:21
TRACK 05 AUDIO
TITLE “Helden”
ISRC GBHQD0700024
INDEX 01 15:58:73
TRACK 06 AUDIO
TITLE “Stroke”
ISRC GBHQD0700025
INDEX 01 20:17:61
TRACK 07 AUDIO
TITLE “Last Hope”
ISRC GBHQD0700026
INDEX 01 24:50:10
TRACK 08 AUDIO
TITLE “I Don’t Care”
ISRC GBHQD0700027
INDEX 01 29:38:08
TRACK 09 AUDIO
TITLE “Burn”
ISRC GBHQD0700028
INDEX 01 33:36:02
TRACK 10 AUDIO
TITLE “S.O.S. (Anything But Love)”
ISRC GBHQD0700029
INDEX 01 37:52:65
TRACK 11 AUDIO
TITLE “Peace”
ISRC GBHQD0700030
INDEX 01 42:12:38
TRACK 12 AUDIO
TITLE “Ural (Bonus Track)”
ISRC GBHQD0700031
INDEX 01 48:02:27
TRACK 13 AUDIO
TITLE “Dreamer (Bonus Track)”
ISRC GBHQD0700033
INDEX 01 53:44:06

Leave a Reply

Your email address will not be published. Required fields are marked *

Enter the text from the image below
 

This site uses Akismet to reduce spam. Learn how your comment data is processed.