Apocalyptica – Reflections




Artist: Apocalyptica
Year: 2003
Genre: Metal
Notes: Discogs
Add. Notes:
Cover incl.: Yes
Encoder: FLAC
Bitrate: ~900 kBit/s (44.1 kHz/16 Bit/s)
Log & Cue incl.: Yes
Size: 335,57 MB
Password: “slam” (without ” “)


All Downloads/Hosters are compatible

Download 1
Turbobit.net
Rapidgator.net
UploadEver.com
KatFile.com
UsersDrive.com
Download 2
Turbobit.net
Rapidgator.net
UploadEver.com
KatFile.com
UsersDrive.com
Download 3
Turbobit.net
Rapidgator.net
UploadEver.com
KatFile.com
UsersDrive.com

Tracklist:

1. Prologue (Apprehension). 3:09
2. No Education. 3:21
3. Faraway. 5:12
4. Somewhere Around Nothing. 4:08
5. Drive. 3:23
6. Cohkka. 4:31
7. Conclusion. 4:06
8. Resurrection. 3:35
9. Heat. 3:25
10. Cortége. 4:27
11. Pandemonium. 2:04
12. Toreador II. 4:04
13. Epilogue (Relief). 3:04

EAC-Log, CUE-Sheed & NFO:

Click to open spoiler
EAC extraction logfile from 16. April 2003, 11:37 for CD
APOCALYPTICA / Reflections

Used drive : TEAC CD-532E-B Adapter: 1 ID: 1
Read mode : Secure with NO C2, accurate stream, disable cache
Read offset correction : 684
Overread into Lead-In and Lead-Out : No

Used output format : Internal WAV Routines
44.100 Hz; 16 Bit; Stereo

Other options :
Fill up missing offset samples with silence : Yes
Delete leading and trailing silent blocks : No
Installed external ASPI interface

Range status and errors
Selected range
Filename E:\Wav1\APOCALYPTICA – Reflections (2003).wav

Peak level 98.8 %
Range quality 100.0 %
CRC 75CF6A3A
Copy OK

No errors occured

End of status report

PERFORMER “Apocalyptica”
TITLE “Reflections”
FILE “Apocalyptica – Reflections.flac” WAVE
TRACK 01 AUDIO
TITLE “Prologue (Apprehension)”
PERFORMER “APOCALYPTICA”
INDEX 01 00:00:00
TRACK 02 AUDIO
TITLE “No Education”
PERFORMER “APOCALYPTICA”
INDEX 01 03:09:42
TRACK 03 AUDIO
TITLE “Faraway”
PERFORMER “APOCALYPTICA”
INDEX 00 06:26:24
INDEX 01 06:30:03
TRACK 04 AUDIO
TITLE “Somewhere around nothing”
PERFORMER “APOCALYPTICA”
INDEX 01 11:42:37
TRACK 05 AUDIO
TITLE “Drive”
PERFORMER “APOCALYPTICA”
INDEX 01 15:50:03
TRACK 06 AUDIO
TITLE “Cohkka”
PERFORMER “APOCALYPTICA”
INDEX 00 19:10:74
INDEX 01 19:13:34
TRACK 07 AUDIO
TITLE “Conclusion”
PERFORMER “APOCALYPTICA”
INDEX 00 23:40:55
INDEX 01 23:44:46
TRACK 08 AUDIO
TITLE “Ressurection”
PERFORMER “APOCALYPTICA”
INDEX 01 27:50:59
TRACK 09 AUDIO
TITLE “Heat”
PERFORMER “APOCALYPTICA”
INDEX 00 31:24:26
INDEX 01 31:25:51
TRACK 10 AUDIO
TITLE “Cortége”
PERFORMER “APOCALYPTICA”
INDEX 00 34:46:47
INDEX 01 34:50:17
TRACK 11 AUDIO
TITLE “Pandemonium”
PERFORMER “APOCALYPTICA”
INDEX 01 39:17:22
TRACK 12 AUDIO
TITLE “Toreador II”
PERFORMER “APOCALYPTICA”
INDEX 01 41:21:27
TRACK 13 AUDIO
TITLE “Epilogue (Relief)”
PERFORMER “APOCALYPTICA”
INDEX 00 45:20:69
INDEX 01 45:24:74


Leave a Reply

Your email address will not be published. Required fields are marked *

This site uses Akismet to reduce spam. Learn how your comment data is processed.