Apocalyptica – Plays Metallica By Four Cellos




Artist: Apocalyptica
Year: 1996
Genre: Rock
Notes: Discogs
Add. Notes:
Cover incl.: Yes
Encoder: FLAC
Bitrate: ~800 kBit/s (44.1 kHz/16 Bit/s)
Log & Cue incl.: Yes
Size: 257,6 MB
Password: “slam” (without ” “)


All Downloads/Hosters are compatible

Download 1
Turbobit.net
Rapidgator.net
KatFile.com
UploadRar.com
Download 2
Turbobit.net
Rapidgator.net
KatFile.com
UploadRar.com
Download 3
Turbobit.net
Rapidgator.net
KatFile.com
UploadRar.com

Tracklist:

1 - Enter Sandman - 3:41
2 - Master Of Puppets - 7:17
3 - Harvester Of Sorrow - 6:15
4 - The Unforgiven - 5:23
5 - Sad But True - 4:48
6 - Creeping Death - 5:08
7 - Wherever I May Roam - 6:09
8 - Welcome Home (Sanitarium) - 5:50 -

EAC-Log, CUE-Sheed & NFO:

Click to open spoiler
Exact Audio Copy V0.99 prebeta 3 from 28. July 2007

Отчёт EAC об извлечении, выполненном 26. ноября 2007, 22:08

Apocalyptica / Plays Metallica By Four Cellos

Дисковод: _NEC DVD_RW ND-2500A Adapter: 0 ID: 0

Режим чтения : Достоверность
Использование точного потока : Да
Отключение кэша аудио : Да
Использование указателей C2 : Нет

Комбинированное смещение чтения/записи : 48
Способность читать области Lead-in и Lead-out : Нет
Заполнение пропущенных сэмплов тишиной : Да
Удаление блоков с тишиной в начале и конце : Нет
При вычислениях CRC использовались нулевые сэмплы : Да
Интерфейс : Установленный внешний ASPI-интерфейс

Выходной формат : Внутренние WAV-операции
Формат сэмплов : 44.100 Гц; 16 бит; стерео

TOC извлечённого CD

Трек | Старт | Длительность | Начальный сектор | Конечный сектор
———————————————————————
1 | 0:00.00 | 3:41.52 | 0 | 16626
2 | 3:41.52 | 7:17.00 | 16627 | 49401
3 | 10:58.52 | 6:15.00 | 49402 | 77526
4 | 17:13.52 | 5:23.10 | 77527 | 101761
5 | 22:36.62 | 4:48.33 | 101762 | 123394
6 | 27:25.20 | 5:08.20 | 123395 | 146514
7 | 32:33.40 | 6:09.45 | 146515 | 174234
8 | 38:43.10 | 5:50.17 | 174235 | 200501

Характеристики диапазона извлечения и сообщения об ошибках

Выбранный диапазон

Имя файла F:\Music\Apocalyptica – Plays Metallica By Four Cellos.wav

Пиковый уровень 94.9 %
Качество диапазона 99.9 %
CRC копии 8609D5F9
Копирование… OK

Ошибок не произошло

Конец отчёта

REM GENRE Rock
REM DATE 1996
REM DISCID 610A7108
REM COMMENT “ExactAudioCopy v0.99pb3”
PERFORMER “Apocalyptica”
TITLE “Plays Metallica By Four Cellos”
FILE “Apocalyptica – Plays Metallica By Four Cellos.flac” WAVE
TRACK 01 AUDIO
TITLE “Enter Sandman”
PERFORMER “Apocalyptica”
FLAGS DCP
INDEX 01 00:00:00
TRACK 02 AUDIO
TITLE “Master Of Puppets”
PERFORMER “Apocalyptica”
FLAGS DCP
INDEX 01 03:41:52
TRACK 03 AUDIO
TITLE “Harvester Of Sorrow”
PERFORMER “Apocalyptica”
FLAGS DCP
INDEX 01 10:58:52
TRACK 04 AUDIO
TITLE “The Unforgiven”
PERFORMER “Apocalyptica”
FLAGS DCP
INDEX 01 17:13:52
TRACK 05 AUDIO
TITLE “Sad But True”
PERFORMER “Apocalyptica”
FLAGS DCP
INDEX 01 22:36:62
TRACK 06 AUDIO
TITLE “Creeping Death”
PERFORMER “Apocalyptica”
FLAGS DCP
INDEX 01 27:25:20
TRACK 07 AUDIO
TITLE “Wherever I May Roam”
PERFORMER “Apocalyptica”
FLAGS DCP
INDEX 01 32:33:40
TRACK 08 AUDIO
TITLE “Welcome Home (Sanitarium)”
PERFORMER “Apocalyptica”
FLAGS DCP
INDEX 01 38:43:10


Leave a Reply

Your email address will not be published. Required fields are marked *

This site uses Akismet to reduce spam. Learn how your comment data is processed.