Apocalyptica – Inquisition Symphony




Artist: Apocalyptica
Year: 1998
Genre: Rock
Notes: Discogs
Add. Notes:
Cover incl.: Yes
Encoder: FLAC
Bitrate: ~900 kBit/s (44.1 kHz/16 Bit/s)
Log & Cue incl.: Yes
Size: 296,31 MB
Password: “slam” (without ” “)


All Downloads/Hosters are compatible

Download 1
Turbobit.net
Rapidgator.net
UploadEver.com
KatFile.com
UsersDrive.com
Download 2
Turbobit.net
Rapidgator.net
UploadEver.com
KatFile.com
UsersDrive.com
Download 3
Turbobit.net
Rapidgator.net
UploadEver.com
KatFile.com
UsersDrive.com

Tracklist:

1. Harmageddon. 4:56
2. From Out Of Nowhere. 3:10
3. For Whom The Bell Tolls. 3:09
4. Nothing Else Matters. 4:45
5. Refuse/Resist. 3:12
6. M. B.. 3:58
7. Inquisition Symphony. 4:57
8. Fade To Black. 5:00
9. Domination. 3:30
10. Toreador. 4:20
11. One. 5:44

EAC-Log, CUE-Sheed & NFO:

Click to open spoiler
Exact Audio Copy V0.99 prebeta 4 from 23. January 2008

Отчёт EAC об извлечении, выполненном 28. мая 2008, 18:40

Apocalyptica / Inquisition Symphony

Дисковод: Optiarc DVD RW AD-7170A Adapter: 1 ID: 0

Режим чтения : Достоверность
Использование точного потока : Да
Отключение кэша аудио : Да
Использование указателей C2 : Нет

Коррекция смещения при чтении : 48
Способность читать области Lead-in и Lead-out : Нет
Заполнение пропущенных сэмплов тишиной : Да
Удаление блоков с тишиной в начале и конце : Нет
При вычислениях CRC использовались нулевые сэмплы : Да
Интерфейс : Встроенный Win32-интерфейс для Win NT/2000

Выходной формат : Пользовательский кодировщик
Выбранный битрейт : 768 kBit/s
Качество : Высокий
Добавление ID3-тэга : Нет
Утилита сжатия : E:\Program Files\Exact Audio Copy\FLAC\FLAC.EXE
Дополнительные параметры : -6 -V -T “ARTIST=%a” -T “TITLE=%t” -T “ALBUM=%g” -T “DATE=%y” -T “TRACKNUMBER=%n” -T “GENRE=%m” -T “COMMENT=%e” %s -o %d

TOC извлечённого CD

Трек | Старт | Длительность | Начальный сектор | Конечный сектор
———————————————————————
1 | 0:00.00 | 4:56.15 | 0 | 22214
2 | 4:56.15 | 3:10.72 | 22215 | 36536
3 | 8:07.12 | 3:11.30 | 36537 | 50891
4 | 11:18.42 | 4:45.40 | 50892 | 72306
5 | 16:04.07 | 3:13.08 | 72307 | 86789
6 | 19:17.15 | 3:58.60 | 86790 | 104699
7 | 23:16.00 | 4:57.15 | 104700 | 126989
8 | 28:13.15 | 5:00.70 | 126990 | 149559
9 | 33:14.10 | 3:31.30 | 149560 | 165414
10 | 36:45.40 | 4:22.15 | 165415 | 185079
11 | 41:07.55 | 5:44.35 | 185080 | 210914

Характеристики диапазона извлечения и сообщения об ошибках

Выбранный диапазон

Имя файла D:\Apocalyptica – Inquisition Symphony\Apocalyptica – Inquisition Symphony.wav

Пиковый уровень 98.4 %
Качество диапазона 100.0 %
CRC копии 7E95185B
Копирование… OK

Ошибок не произошло

AccurateRip: сводка

Трек 1 точное извлечение (доверие 5) [8E3FC5DC]
Трек 2 точное извлечение (доверие 4) [0832876E]
Трек 3 точное извлечение (доверие 4) [A94B8CC5]
Трек 4 точное извлечение (доверие 4) [C76DF5A7]
Трек 5 точное извлечение (доверие 4) [42CA3566]
Трек 6 точное извлечение (доверие 4) [FA397DE4]
Трек 7 точное извлечение (доверие 4) [58B3EA10]
Трек 8 точное извлечение (доверие 4) [E44A8571]
Трек 9 точное извлечение (доверие 4) [6C854B03]
Трек 10 точное извлечение (доверие 4) [444A48E4]
Трек 11 точное извлечение (доверие 4) [698655F2]

Все треки извлечены точно

Конец отчёта

REM GENRE “Symphonic Rock”
REM DATE 1998
REM DISCID C00AFC0B
REM COMMENT “ExactAudioCopy v0.99pb4”
PERFORMER “Apocalyptica”
TITLE “Inquisition Symphony”
FILE “Apocalyptica – Inquisition Symphony.flac” WAVE
TRACK 01 AUDIO
TITLE “Harmageddon”
PERFORMER “Apocalyptica”
INDEX 01 00:00:00
TRACK 02 AUDIO
TITLE “From Out Of Nowhere”
PERFORMER “Apocalyptica”
INDEX 00 04:56:07
INDEX 01 04:56:15
TRACK 03 AUDIO
TITLE “For Whom The Bell Tolls”
PERFORMER “Apocalyptica”
INDEX 00 08:07:03
INDEX 01 08:07:12
TRACK 04 AUDIO
TITLE “Nothing Else Matters”
PERFORMER “Apocalyptica”
INDEX 00 11:16:04
INDEX 01 11:18:42
TRACK 05 AUDIO
TITLE “Refuse/Resist”
PERFORMER “Apocalyptica”
INDEX 00 16:04:00
INDEX 01 16:04:07
TRACK 06 AUDIO
TITLE “M. B.”
PERFORMER “Apocalyptica”
INDEX 00 19:15:54
INDEX 01 19:17:15
TRACK 07 AUDIO
TITLE “Inquisition Symphony”
PERFORMER “Apocalyptica”
INDEX 00 23:15:60
INDEX 01 23:16:00
TRACK 08 AUDIO
TITLE “Fade To Black”
PERFORMER “Apocalyptica”
INDEX 00 28:13:02
INDEX 01 28:13:15
TRACK 09 AUDIO
TITLE “Domination”
PERFORMER “Apocalyptica”
INDEX 00 33:13:73
INDEX 01 33:14:10
TRACK 10 AUDIO
TITLE “Toreador”
PERFORMER “Apocalyptica”
INDEX 00 36:43:64
INDEX 01 36:45:40
TRACK 11 AUDIO
TITLE “One”
PERFORMER “Apocalyptica”
INDEX 00 41:05:55
INDEX 01 41:07:55


Leave a Reply

Your email address will not be published. Required fields are marked *

Enter the text from the image below
 

This site uses Akismet to reduce spam. Learn how your comment data is processed.