Apocalyptica – I’m not Jesus




Artist: Apocalyptica
Year: 2007
Genre: Metal
Notes: Discogs
Add. Notes:
Cover incl.: Yes
Encoder: FLAC
Bitrate: ~1000 kBit/s (44.1 kHz/16 Bit/s)
Log & Cue incl.: Yes
Size: 194,42 MB
Password: “slam” (without ” “)


All Downloads/Hosters are compatible

Download 1
Turbobit.net
Rapidgator.net
KatFile.com
UploadRar.com
Download 2
Turbobit.net
Rapidgator.net
KatFile.com
UploadRar.com
Download 3
Turbobit.net
Rapidgator.net
KatFile.com
UploadRar.com

Tracklist:

1 - I'm Not Jesus - 3:36
2 - Worlds Collide - 4:28
3 - SOS (Instrumental) - 4:18
4 - Burn - 4:18

EAC-Log, CUE-Sheed & NFO:

Click to open spoiler
Exact Audio Copy V0.99 prebeta 3 from 28. July 2007

EAC extraction logfile from 9. December 2007, 1:21

Apocalyptica / I’m not Jesus

Used drive : PLEXTOR CD-R PREMIUM Adapter: 5 ID: 2

Read mode : Secure
Utilize accurate stream : Yes
Defeat audio cache : Yes
Make use of C2 pointers : No

Read offset correction : 30
Overread into Lead-In and Lead-Out : Yes
Fill up missing offset samples with silence : Yes
Delete leading and trailing silent blocks : No
Null samples used in CRC calculations : Yes
Used interface : Installed external ASPI interface

Used output format : Internal WAV Routines
Sample format : 44.100 Hz; 16 Bit; Stereo

TOC of the extracted CD

Track | Start | Length | Start sector | End sector
———————————————————
1 | 0:00.00 | 3:35.63 | 0 | 16187
2 | 3:35.63 | 4:28.17 | 16188 | 36304
3 | 8:04.05 | 4:18.31 | 36305 | 55685
4 | 12:22.36 | 4:17.47 | 55686 | 75007
5 | 19:12.08 | 16:17.21 | 86408 | 159703

Range status and errors

Selected range

Filename D:\Release\Apocalyptica – I’m not Jesus\Apocalyptica – I’m not Jesus.wav

Peak level 100.0 %
Range quality 100.0 %
Copy CRC D94009D3
Copy OK

No errors occurred

AccurateRip summary

Track 1 not present in database
Track 2 not present in database
Track 3 not present in database
Track 4 not present in database

None of the tracks are present in the AccurateRip database

End of status report

REM GENRE Metal
REM DATE 2007
REM DISCID 38085105
REM COMMENT “ExactAudioCopy v0.99pb3”
PERFORMER “Apocalyptica”
TITLE “I’m not Jesus”
FILE “Apocalyptica – I’m not Jesus.flac” WAVE
TRACK 01 AUDIO
TITLE “I’m not Jesus (feat. Corey Taylor)”
PERFORMER “Apocalyptica”
ISRC GBHQD0700017
INDEX 01 00:00:00
TRACK 02 AUDIO
TITLE “Worlds Collide”
PERFORMER “Apocalyptica”
ISRC GBHQD0700021
INDEX 00 03:34:52
INDEX 01 03:35:63
TRACK 03 AUDIO
TITLE “SOS (Instrumental)”
PERFORMER “Apocalyptica”
ISRC GBHQD0700035
INDEX 00 08:03:13
INDEX 01 08:04:05
TRACK 04 AUDIO
TITLE “Burn”
PERFORMER “Apocalyptica”
ISRC GBHQD0700028
INDEX 00 12:21:28
INDEX 01 12:22:36


Leave a Reply

Your email address will not be published. Required fields are marked *

This site uses Akismet to reduce spam. Learn how your comment data is processed.