Apocalyptica – Cult (Special Edition)




Artist: Apocalyptica
Year: 2001
Genre: Metal
Notes: Discogs
Add. Notes: Special Edition
Cover incl.: Yes
Encoder: FLAC
Bitrate: ~800 kBit/s (44.1 kHz/16 Bit/s)
Log & Cue incl.: Yes
Size: 494,3 MB
Password: “slam” (without ” “)


All Downloads/Hosters are compatible

Download 1
Turbobit.net
Rapidgator.net
UploadEver.com
KatFile.com
UsersDrive.com
Download 2
Turbobit.net
Rapidgator.net
UploadEver.com
KatFile.com
UsersDrive.com
Download 3
Turbobit.net
Rapidgator.net
UploadEver.com
KatFile.com
UsersDrive.com

Tracklist:

1-1 - Path - 3:06
1-2 - Struggle - 3:26
1-3 - Romance - 3:27
1-4 - Pray! - 4:24
1-5 - In Memoriam - 4:42
1-6 - Hyperventilation - 4:25
1-7 - Beyond Time - 3:57
1-8 - Hope - 3:25
1-9 - Kaamos - 4:45
1-10 - Coma - 6:47
1-11 - Hall Of The Mountain King - 3:29
1-12 - Until It Sleeps - 3:14
1-13 - Fight Fire With Fire - 3:25
2-1 - Path Vol. 2 - 3:23
2-2 - Hope Vol. 2 - 4:01
2-3 - Harmageddon (Live In Munich) - 5:01
2-4 - Nothing Else Matters (Live In Munich) - 5:19
2-5 - Inquisition Symphony (Live In Munich) - 5:11

EAC-Log, CUE-Sheed & NFO:

Click to open spoiler
EAC extraction logfile from 25. October 2005, 20:15 for CD
Apocalyptica / Cult – Special Edition (Disc I)

Used drive : HL-DT-STDVD-ROM GDR8161B Adapter: 1 ID: 0
Read mode : Secure with NO C2, accurate stream, NO disable cache
Read offset correction : 102
Overread into Lead-In and Lead-Out : Yes

Used output format : Internal WAV Routines
44.100 Hz; 16 Bit; Stereo

Other options :
Fill up missing offset samples with silence : No
Delete leading and trailing silent blocks : No
Installed external ASPI interface

Range status and errors
Selected range
Filename C:\Documents and Settings\Ale\Escritorio\Cult\CD1\CDImage.wav

Peak level 98.8 %
Range quality 100.0 %
CRC FCDC288E
Copy OK

No errors occured

End of status report

EAC extraction logfile from 25. October 2005, 20:38 for CD
Apocalyptica / Cult – Special Edition (Disc II)

Used drive : HL-DT-STDVD-ROM GDR8161B Adapter: 1 ID: 0
Read mode : Secure with NO C2, accurate stream, NO disable cache
Read offset correction : 102
Overread into Lead-In and Lead-Out : Yes

Used output format : Internal WAV Routines
44.100 Hz; 16 Bit; Stereo

Other options :
Fill up missing offset samples with silence : No
Delete leading and trailing silent blocks : No
Installed external ASPI interface

Range status and errors
Selected range
Filename C:\Documents and Settings\Ale\Escritorio\Cult\CD2\CDImage.wav

Peak level 100.0 %
Range quality 100.0 %
CRC 7EA1346B
Copy OK

No errors occured

End of status report

PERFORMER “Apocalyptica”
TITLE “Cult – Special Edition (Disc I)”
FILE “Apocalyptica – Cult (Special Edition) CD1.wav” WAVE
TRACK 01 AUDIO
TITLE “Path”
PERFORMER “Apocalyptica”
INDEX 01 00:00:00
TRACK 02 AUDIO
TITLE “Struggle”
PERFORMER “Apocalyptica”
INDEX 01 03:06:14
TRACK 03 AUDIO
TITLE “Romance”
PERFORMER “Apocalyptica”
INDEX 00 06:32:08
INDEX 01 06:32:65
TRACK 04 AUDIO
TITLE “Pray!”
PERFORMER “Apocalyptica”
INDEX 01 10:00:07
TRACK 05 AUDIO
TITLE “In Memoriam”
PERFORMER “Apocalyptica”
INDEX 00 14:22:47
INDEX 01 14:24:72
TRACK 06 AUDIO
TITLE “Hyperventilation”
PERFORMER “Apocalyptica”
INDEX 00 19:04:30
INDEX 01 19:07:31
TRACK 07 AUDIO
TITLE “Beyond Time”
PERFORMER “Apocalyptica”
INDEX 01 23:32:58
TRACK 08 AUDIO
TITLE “Hope”
PERFORMER “Apocalyptica”
INDEX 00 27:30:32
INDEX 01 27:30:36
TRACK 09 AUDIO
TITLE “Kaamos”
PERFORMER “Apocalyptica”
INDEX 00 30:55:10
INDEX 01 30:55:73
TRACK 10 AUDIO
TITLE “Coma”
PERFORMER “Apocalyptica”
INDEX 00 35:37:46
INDEX 01 35:41:26
TRACK 11 AUDIO
TITLE “Hall of the Mountain King”
PERFORMER “Apocalyptica”
INDEX 00 42:27:32
INDEX 01 42:39:12
TRACK 12 AUDIO
TITLE “Until It Sleeps”
PERFORMER “Apocalyptica”
INDEX 00 46:06:73
INDEX 01 46:08:38
TRACK 13 AUDIO
TITLE “Fight Fire With Fire”
PERFORMER “Apocalyptica”
INDEX 01 49:22:57

PERFORMER “Apocalyptica”
TITLE “Cult – Special Edition (Disc II)”
FILE “Apocalyptica – Cult (Special Edition) CD2.flac” WAVE
TRACK 01 AUDIO
TITLE “Path Vol.II”
PERFORMER “Apocalyptica”
INDEX 01 00:00:00
TRACK 02 AUDIO
TITLE “Hope Vol.II”
PERFORMER “Apocalyptica”
INDEX 00 03:23:04
INDEX 01 03:23:32
TRACK 03 AUDIO
TITLE “Harmageddon”
PERFORMER “Apocalyptica”
INDEX 01 07:24:58
TRACK 04 AUDIO
TITLE “Nothing Else Matters”
PERFORMER “Apocalyptica”
INDEX 01 12:26:56
TRACK 05 AUDIO
TITLE “Inquisition Symphony”
PERFORMER “Apocalyptica”
INDEX 01 17:45:68


Leave a Reply

Your email address will not be published. Required fields are marked *

This site uses Akismet to reduce spam. Learn how your comment data is processed.