Apocalyptica – Apocalyptica (Special Edition)




Artist: Apocalyptica
Year: 2005
Genre: Rock
Notes: Discogs
Add. Notes: Special Edition
Cover incl.: Yes
Encoder: FLAC
Bitrate: ~900 kBit/s (44.1 kHz/16 Bit/s)
Log & Cue incl.: Yes
Size: 431,91 MB
Password: “slam” (without ” “)


All Downloads/Hosters are compatible

Download 1
Turbobit.net
Rapidgator.net
KatFile.com
UsersDrive.com
IntoUpload.net
Download 2
Turbobit.net
Rapidgator.net
KatFile.com
UsersDrive.com
IntoUpload.net
Download 3
Turbobit.net
Rapidgator.net
KatFile.com
UsersDrive.com
IntoUpload.net

Tracklist:

1 - Life Burns! - 3:06
2 - Quutamo - 3:28
3 - Distraction - 3:56
4 - Bittersweet - 4:26
5 - Misconstruction - 3:56
6 - Fisheye - 4:09
7 - Farewell - 5:33
8 - Fatal Error - 2:59
9 - Betrayal / Forgiveness - 5:13
10 - Ruska - 4:39
11 - Deathzone - 4:38
Bonusmaterial
12 - En Vie - 3:28
13 - How Far - 3:28
14 - Wie Weit - 3:29
15 - Бой С Тенью

EAC-Log, CUE-Sheed & NFO:

Click to open spoiler
Exact Audio Copy V0.99 prebeta 2 from 28. July 2007

EAC extraction logfile from 8. February 2008, 14:22

Apocalyptica / Apocalyptica (Special Edition)

Used drive : Optiarc DVD RW AD-5170A Adapter: 4 ID: 0

Read mode : Secure
Utilize accurate stream : Yes
Defeat audio cache : Yes
Make use of C2 pointers : No

Read offset correction : 48
Overread into Lead-In and Lead-Out : No
Fill up missing offset samples with silence : Yes
Delete leading and trailing silent blocks : No
Null samples used in CRC calculations : Yes
Used interface : Installed external ASPI interface

Used output format : Internal WAV Routines
Sample format : 44.100 Hz; 16 Bit; Stereo

TOC of the extracted CD

Track | Start | Length | Start sector | End sector
———————————————————
1 | 0:00.00 | 3:06.42 | 0 | 13991
2 | 3:06.42 | 3:28.09 | 13992 | 29600
3 | 6:34.51 | 3:56.29 | 29601 | 47329
4 | 10:31.05 | 4:26.03 | 47330 | 67282
5 | 14:57.08 | 3:56.09 | 67283 | 84991
6 | 18:53.17 | 4:09.40 | 84992 | 103706
7 | 23:02.57 | 5:33.01 | 103707 | 128682
8 | 28:35.58 | 2:59.56 | 128683 | 142163
9 | 31:35.39 | 5:13.48 | 142164 | 165686
10 | 36:49.12 | 4:39.36 | 165687 | 186647
11 | 41:28.48 | 4:38.05 | 186648 | 207502
12 | 46:06.53 | 3:28.44 | 207503 | 223146
13 | 49:35.22 | 3:28.45 | 223147 | 238791
14 | 53:03.67 | 3:29.51 | 238792 | 254517
15 | 56:33.43 | 2:55.59 | 254518 | 267701
16 | 62:01.27 | 7:58.48 | 279102 | 314999

Range status and errors

Selected range

Filename M:\Music\Apocalyptica\2005 Apocalyptica\Apocalyptica – Apocalyptica (Special Edition).wav

Peak level 100.0 %
Range quality 99.9 %
Copy CRC 22A0C773
Copy OK

No errors occurred

End of status report

REM GENRE “Cello Metal”
REM DATE 2005
REM DISCID 08106810
REM COMMENT “ExactAudioCopy v0.99pb2”
PERFORMER “Apocalyptica”
TITLE “Apocalyptica (Special Edition)”
FILE “Apocalyptica – Apocalyptica (Special Edition).flac” WAVE
TRACK 01 AUDIO
TITLE “Life Burns!”
PERFORMER “Apocalyptica”
INDEX 01 00:00:00
TRACK 02 AUDIO
TITLE “Quutamo”
PERFORMER “Apocalyptica”
INDEX 01 03:06:42
TRACK 03 AUDIO
TITLE “Distraction”
PERFORMER “Apocalyptica”
INDEX 00 06:32:56
INDEX 01 06:34:51
TRACK 04 AUDIO
TITLE “Bittersweet”
PERFORMER “Apocalyptica”
INDEX 00 10:27:59
INDEX 01 10:31:05
TRACK 05 AUDIO
TITLE “Misconstruction”
PERFORMER “Apocalyptica”
INDEX 01 14:57:08
TRACK 06 AUDIO
TITLE “Fisheye”
PERFORMER “Apocalyptica”
INDEX 01 18:53:17
TRACK 07 AUDIO
TITLE “Farewell”
PERFORMER “Apocalyptica”
INDEX 00 23:00:05
INDEX 01 23:02:57
TRACK 08 AUDIO
TITLE “Fatal Error”
PERFORMER “Apocalyptica”
INDEX 00 28:33:60
INDEX 01 28:35:58
TRACK 09 AUDIO
TITLE “Betrayal/ Forgiveness”
PERFORMER “Apocalyptica”
INDEX 01 31:35:39
TRACK 10 AUDIO
TITLE “Ruska”
PERFORMER “Apocalyptica”
INDEX 00 36:46:01
INDEX 01 36:49:12
TRACK 11 AUDIO
TITLE “Deathzone”
PERFORMER “Apocalyptica”
INDEX 00 41:24:62
INDEX 01 41:28:48
TRACK 12 AUDIO
TITLE “En Vie”
PERFORMER “Apocalyptica”
INDEX 01 46:06:53
TRACK 13 AUDIO
TITLE “How Far”
PERFORMER “Apocalyptica”
INDEX 00 49:34:09
INDEX 01 49:35:22
TRACK 14 AUDIO
TITLE “Wie Weit”
PERFORMER “Apocalyptica”
INDEX 00 53:02:27
INDEX 01 53:03:67
TRACK 15 AUDIO
TITLE “Бой С Тенью”
PERFORMER “Apocalyptica”
INDEX 00 56:31:48
INDEX 01 56:33:43


Leave a Reply

Your email address will not be published. Required fields are marked *

This site uses Akismet to reduce spam. Learn how your comment data is processed.