Apocalyptica – Amplified – A Decade Of Reinventing The Cello




Artist: Apocalyptica
Year: 2006
Genre: Metal
Notes: Discogs
Add. Notes:
Cover incl.: Yes
Encoder: FLAC
Bitrate: ~900 kBit/s (44.1 kHz/16 Bit/s)
Log & Cue incl.: Yes
Size: 639,82 MB
Password: “slam” (without ” “)


All Downloads/Hosters are compatible

Download 1
Turbobit.net
Rapidgator.net
KatFile.com
UploadRar.com
Download 2
Turbobit.net
Rapidgator.net
KatFile.com
UploadRar.com
Download 3
Turbobit.net
Rapidgator.net
KatFile.com
UploadRar.com

Tracklist:

CD 1 (Instrumental)
1-01 - Enter Sandman - 3:42
1-02 - Harmageddon - 4:56
1-03 - Nothing Else Matters - 4:48
1-04 - Refuse / Resist - 3:14
1-05 - Somewhere Around Nothing - 4:10
1-06 - Betrayal - 5:13
1-07 - Farewell - 5:33
1-08 - Master Of Puppets - 6:03
1-09 - Hall Of The Mountain King - 3:29
1-10 - One - 5:45
1-11 - Heat - 3:22
1-12 - Cohkka - 4:29
1-13 - Kaamos - 4:44
1-14 - Deathzone - 4:37
1-15 - Angel Of Death - 3:53
CD 2 (Vocals)
2-01 - Repressed - 4:28
2-02 - Path Vol. 2 - 3:24
2-03 - Bittersweet - 4:27
2-04 - Hope Vol. 2 - 4:03
2-05 - En Vie - 3:28
2-06 - Faraway Vol. 2 - 5:13
2-07 - Life Burns - 3:08
2-08 - Seemann - 5:21

EAC-Log, CUE-Sheed & NFO:

Click to open spoiler
EAC Auslese-Logdatei vom 3. Juni 2006, 14:04 für CD
Apocalyptica / Amplified CD1

Benutztes Laufwerk : PIONEER DVD RW DVR-108 Adapter: 0 ID: 0
Lesemodus : Sicher mit KEINEM C2, Accurate Stream, Puffer abgeschaltet
Leseoffset Korrektur : 48
Überlesen in das Lead-In und Lead-Out : Nein

Benutztes Ausgabeformat : Interne WAV Routinen
44.100 Hz; 16 Bit; Stereo

Andere Einstellungen :
Fülle fehlende Offsetsample mit Stille auf : Ja
Lösche führende und nachfolgende stille Blöcke : Nein
Installierte externe ASPI Schnittstelle

Bereichsstatus und Fehler
Gewählter Bereich
Dateiname H:\Toasten 2\Apocalyptica – Amplified CD1.wav

Spitzenpegel 100.0 %
Bereichsqualität 100.0 %
CRC 1869FA87
Kopie OK

Keine Fehler aufgetreten

Ende des Statusreports

EAC Auslese-Logdatei vom 3. Juni 2006, 14:10 für CD
Apocalyptica / Amplified CD2

Benutztes Laufwerk : PIONEER DVD RW DVR-108 Adapter: 0 ID: 0
Lesemodus : Sicher mit KEINEM C2, Accurate Stream, Puffer abgeschaltet
Leseoffset Korrektur : 48
Überlesen in das Lead-In und Lead-Out : Nein

Benutztes Ausgabeformat : Interne WAV Routinen
44.100 Hz; 16 Bit; Stereo

Andere Einstellungen :
Fülle fehlende Offsetsample mit Stille auf : Ja
Lösche führende und nachfolgende stille Blöcke : Nein
Installierte externe ASPI Schnittstelle

Bereichsstatus und Fehler
Gewählter Bereich
Dateiname H:\Toasten 2\Apocalyptica – Amplified CD2.wav

Spitzenpegel 100.0 %
Bereichsqualität 100.0 %
CRC 8B0F7ACC
Kopie OK

Keine Fehler aufgetreten

Ende des Statusreports

CATALOG 0602498565049
PERFORMER “Apocalyptica”
TITLE “Amplified CD1”
FILE “Apocalyptica – Amplified CD1.flac” WAVE
TRACK 01 AUDIO
TITLE “Enter Sandman”
PERFORMER “Apocalyptica”
ISRC FIZGN9600015
INDEX 01 00:00:00
TRACK 02 AUDIO
TITLE “Harmageddon”
PERFORMER “Apocalyptica”
ISRC FIUM70600048
INDEX 00 03:41:06
INDEX 01 03:41:53
TRACK 03 AUDIO
TITLE “Nothing else matter”
PERFORMER “Apocalyptica”
ISRC FIPFP9800037
INDEX 00 08:37:28
INDEX 01 08:37:54
TRACK 04 AUDIO
TITLE “Refuse/Resist”
PERFORMER “Apocalyptica”
ISRC FIPFP9800038
INDEX 00 13:23:33
INDEX 01 13:25:55
TRACK 05 AUDIO
TITLE “Somwhere around nothing”
PERFORMER “Apocalyptica”
ISRC DEN120208254
INDEX 00 16:37:42
INDEX 01 16:39:30
TRACK 06 AUDIO
TITLE “Betrayal”
PERFORMER “Apocalyptica”
ISRC DEN120408570
INDEX 00 20:48:11
INDEX 01 20:49:50
INDEX 02 26:01:63
TRACK 07 AUDIO
TITLE “Farewell”
PERFORMER “Apocalyptica”
ISRC DEN120408566
INDEX 00 26:01:63
INDEX 01 26:02:21
TRACK 08 AUDIO
TITLE “Master of puppets”
PERFORMER “Apocalyptica”
ISRC FIBAR0600106
INDEX 00 31:33:31
INDEX 01 31:34:66
TRACK 09 AUDIO
TITLE “Hall of the mountain king”
PERFORMER “Apocalyptica”
ISRC DEN120001877
INDEX 00 37:37:24
INDEX 01 37:37:61
TRACK 10 AUDIO
TITLE “One”
PERFORMER “Apocalyptica”
ISRC FIPFP9800044
INDEX 00 41:05:44
INDEX 01 41:07:07
TRACK 11 AUDIO
TITLE “Heat”
PERFORMER “Apocalyptica”
ISRC DEN120208263
INDEX 00 46:51:15
INDEX 01 46:52:32
TRACK 12 AUDIO
TITLE “Cohkka”
PERFORMER “Apocalyptica”
ISRC DEN120208256
INDEX 00 50:12:49
INDEX 01 50:14:41
TRACK 13 AUDIO
TITLE “Kaamos”
PERFORMER “Apocalyptica”
ISRC DEN120001875
INDEX 00 54:40:45
INDEX 01 54:43:34
TRACK 14 AUDIO
TITLE “Deathzone”
PERFORMER “Apocalyptica”
ISRC DEN120408576
INDEX 00 59:25:05
INDEX 01 59:27:38
TRACK 15 AUDIO
TITLE “Angel of death”
PERFORMER “Apocalyptica”
ISRC DEUM70601424
INDEX 00 64:02:59
INDEX 01 64:04:06

CATALOG 0602498403365
PERFORMER “Apocalyptica”
TITLE “Amplified CD2”
FILE “Apocalyptica – Amplified CD2.flac” WAVE
TRACK 01 AUDIO
TITLE “Repressed feat. Matt Tuck & Max Cavalera”
PERFORMER “Apocalyptica”
ISRC DEUM70601423
INDEX 01 00:00:00
TRACK 02 AUDIO
TITLE “Path Vol.2 feat. Sandra Nasic”
PERFORMER “Apocalyptica”
ISRC DEN120100464
INDEX 00 04:26:67
INDEX 01 04:27:48
TRACK 03 AUDIO
TITLE “Bittersweet feat. Lauri Ylönen & Ville Valo”
PERFORMER “Apocalyptica”
ISRC DEN120407547
INDEX 00 07:51:07
INDEX 01 07:52:06
TRACK 04 AUDIO
TITLE “Hope Vol.2 feat. Matze Sayer”
PERFORMER “Apocalyptica”
ISRC DEN120100947
INDEX 00 12:18:20
INDEX 01 12:18:57
TRACK 05 AUDIO
TITLE “Wie Weit feat. Marta Jandova”
PERFORMER “Apocalyptica”
ISRC DEN120408630
INDEX 00 16:20:17
INDEX 01 16:21:73
TRACK 06 AUDIO
TITLE “Faraway Vol.2 feat. Linda Sundblad”
PERFORMER “Apocalyptica”
ISRC DEN120301631
INDEX 00 19:49:54
INDEX 01 19:50:19
TRACK 07 AUDIO
TITLE “Life Burns feat. Lauri Ylönen”
PERFORMER “Apocalyptica”
ISRC DEN120408560
INDEX 00 25:02:07
INDEX 01 25:02:68
TRACK 08 AUDIO
TITLE “Seemann feat. Nina Hagen”
PERFORMER “Apocalyptica”
ISRC DEN120305329
INDEX 00 28:09:54
INDEX 01 28:10:70


Leave a Reply

Your email address will not be published. Required fields are marked *

This site uses Akismet to reduce spam. Learn how your comment data is processed.