Anti-Flag – Their System Doesn’t Work For You




No Cover available

Artist: Anti-Flag
Year: 1998
Genre: Punk
Notes: Discogs
Add. Notes:
Watch Songs on: YouTube
Cover incl.: No
Encoder: FLAC
Bitrate: ~800 kBit/s (44.1 kHz/16 Bit/s)
Log & Cue incl.: Yes/Yes
Size: 356,9 MB
Password: “slam” (without ” “)


All Downloads/Hosters are compatible

Download 1
KatFile.com
Turbobit.net
Rapidgator.net
Download 2
KatFile.com
Turbobit.net
Rapidgator.net

Tracklist:

1 - I Cant Stand Being With You - 2:08
2 - Their System Doesnt Work For You - 2:34
3 - Weve Got His Gun - 2:17
4 - Born To Die - 2:08
5 - The Truth - 2:43
6 - Youll Scream Tonight - 5:18
7 - Indie Sux, Hardline Sux, Emo Sux, You Suck! - 2:08
8 - Anti-Violent - 3:04
9 - 20 Years Of Hell - 2:34
10 - Im Having A Good Day - 2:43
11 - I Dont Want To Be Like You - 3:32
12 - Too Late - 2:50
13 - I Dont Need Anybody - 3:51
14 - Betty Sue Is Dead - 3:16
15 - If Not For You - 3:18
16 - Meet Your Master - 3:59
17 - We Wont Take No - 2:36
18 - Save Me - 3:02
19 - Im Feeling Slightly Violent - 3:29

EAC-Log, CUE-Sheed & NFO:

Click to open spoiler
EAC extraction logfile from 9. May 2009, 22:36 for CD
Anti-Flag / Their System Doesn’t Work For You

Used drive : TSSTcorpCD/DVDW TS-L632D Adapter: 0 ID: 1
Read mode : Secure with NO C2, accurate stream, disable cache
Read offset correction : 6
Overread into Lead-In and Lead-Out : No

Used output format : C:\Program Files\FLAC\flac.exe (User Defined Encoder)
128 kBit/s
Additional command line options : -V -8 -T “artist=%a” -T “title=%t” -T “album=%g” -T “date=%y” -T “tracknumber=%n” -T “genre=%m” %sber=%n -T genre=%m %s

Other options :
Fill up missing offset samples with silence : Yes
Delete leading and trailing silent blocks : No
Installed external ASPI interface

Track 1
Filename C:\Documents and Settings\Adam\Desktop\Rips\Anti-Flag – Their System Doesn’t Work For You\01 – Anti-Flag – I Can’t Stand Being With You.wav

Pre-gap length 0:00:02.00

Peak level 100.0 %
Track quality 100.0 %
Test CRC 655CA937
Copy CRC 655CA937
Copy OK

Track 2
Filename C:\Documents and Settings\Adam\Desktop\Rips\Anti-Flag – Their System Doesn’t Work For You\02 – Anti-Flag – Their System Doesn’t Work For You.wav

Pre-gap length 0:00:02.00

Peak level 100.0 %
Track quality 99.9 %
Test CRC 0027639C
Copy CRC 0027639C
Copy OK

Track 3
Filename C:\Documents and Settings\Adam\Desktop\Rips\Anti-Flag – Their System Doesn’t Work For You\03 – Anti-Flag – We’ve Got His Gun.wav

Pre-gap length 0:00:02.00

Peak level 100.0 %
Track quality 100.0 %
Test CRC C61C4EBB
Copy CRC C61C4EBB
Copy OK

Track 4
Filename C:\Documents and Settings\Adam\Desktop\Rips\Anti-Flag – Their System Doesn’t Work For You\04 – Anti-Flag – Born to Die.wav

Pre-gap length 0:00:02.00

Peak level 100.0 %
Track quality 100.0 %
Test CRC D6BA5323
Copy CRC D6BA5323
Copy OK

Track 5
Filename C:\Documents and Settings\Adam\Desktop\Rips\Anti-Flag – Their System Doesn’t Work For You\05 – Anti-Flag – The Truth.wav

Pre-gap length 0:00:02.00

Peak level 100.0 %
Track quality 100.0 %
Test CRC BF8CA744
Copy CRC BF8CA744
Copy OK

Track 6
Filename C:\Documents and Settings\Adam\Desktop\Rips\Anti-Flag – Their System Doesn’t Work For You\06 – Anti-Flag – You’ll Scream Tonight.wav

Pre-gap length 0:00:02.00

Peak level 100.0 %
Track quality 99.9 %
Test CRC 65DBDD61
Copy CRC 65DBDD61
Copy OK

Track 7
Filename C:\Documents and Settings\Adam\Desktop\Rips\Anti-Flag – Their System Doesn’t Work For You\07 – Anti-Flag – Indie Sux, Hardline Sux, Emo Sux, You Suck!.wav

Pre-gap length 0:00:02.00

Peak level 100.0 %
Track quality 100.0 %
Test CRC 6C695504
Copy CRC 6C695504
Copy OK

Track 8
Filename C:\Documents and Settings\Adam\Desktop\Rips\Anti-Flag – Their System Doesn’t Work For You\08 – Anti-Flag – Anti-violent.wav

Pre-gap length 0:00:02.00

Peak level 100.0 %
Track quality 99.9 %
Test CRC DF11C3BF
Copy CRC DF11C3BF
Copy OK

Track 9
Filename C:\Documents and Settings\Adam\Desktop\Rips\Anti-Flag – Their System Doesn’t Work For You\09 – Anti-Flag – 20 Years in Hell.wav

Pre-gap length 0:00:02.00

Peak level 100.0 %
Track quality 99.9 %
Test CRC 49E707CF
Copy CRC 49E707CF
Copy OK

Track 10
Filename C:\Documents and Settings\Adam\Desktop\Rips\Anti-Flag – Their System Doesn’t Work For You\10 – Anti-Flag – I’m Having a Good Day.wav

Pre-gap length 0:00:02.00

Peak level 100.0 %
Track quality 100.0 %
Test CRC A9EC03B1
Copy CRC A9EC03B1
Copy OK

Track 11
Filename C:\Documents and Settings\Adam\Desktop\Rips\Anti-Flag – Their System Doesn’t Work For You\11 – Anti-Flag – I Don’t Want to Be Like You.wav

Pre-gap length 0:00:02.00

Peak level 99.4 %
Track quality 100.0 %
Test CRC B06C883A
Copy CRC B06C883A
Copy OK

Track 12
Filename C:\Documents and Settings\Adam\Desktop\Rips\Anti-Flag – Their System Doesn’t Work For You\12 – Anti-Flag – Too Late.wav

Pre-gap length 0:00:02.00

Peak level 99.2 %
Track quality 100.0 %
Test CRC C0771044
Copy CRC C0771044
Copy OK

Track 13
Filename C:\Documents and Settings\Adam\Desktop\Rips\Anti-Flag – Their System Doesn’t Work For You\13 – Anti-Flag – I Don’t Need Anybody.wav

Pre-gap length 0:00:02.00

Peak level 100.0 %
Track quality 100.0 %
Test CRC A79DDE8B
Copy CRC A79DDE8B
Copy OK

Track 14
Filename C:\Documents and Settings\Adam\Desktop\Rips\Anti-Flag – Their System Doesn’t Work For You\14 – Anti-Flag – Betty Sue is Dead.wav

Pre-gap length 0:00:02.00

Peak level 100.0 %
Track quality 100.0 %
Test CRC 1D48ADDE
Copy CRC 1D48ADDE
Copy OK

Track 15
Filename C:\Documents and Settings\Adam\Desktop\Rips\Anti-Flag – Their System Doesn’t Work For You\15 – Anti-Flag – If Not For You.wav

Pre-gap length 0:00:02.00

Peak level 99.2 %
Track quality 100.0 %
Test CRC 1D4B8DF5
Copy CRC 1D4B8DF5
Copy OK

Track 16
Filename C:\Documents and Settings\Adam\Desktop\Rips\Anti-Flag – Their System Doesn’t Work For You\16 – Anti-Flag – Meet Your Master.wav

Pre-gap length 0:00:02.00

Peak level 100.0 %
Track quality 99.9 %
Test CRC D7BDA2F5
Copy CRC D7BDA2F5
Copy OK

Track 17
Filename C:\Documents and Settings\Adam\Desktop\Rips\Anti-Flag – Their System Doesn’t Work For You\17 – Anti-Flag – We Won’t Take No.wav

Pre-gap length 0:00:02.00

Peak level 99.1 %
Track quality 100.0 %
Test CRC 4C78FA1C
Copy CRC 4C78FA1C
Copy OK

Track 18
Filename C:\Documents and Settings\Adam\Desktop\Rips\Anti-Flag – Their System Doesn’t Work For You\18 – Anti-Flag – Save Me.wav

Pre-gap length 0:00:02.00

Peak level 99.9 %
Track quality 100.0 %
Test CRC 2613B14D
Copy CRC 2613B14D
Copy OK

Track 19
Filename C:\Documents and Settings\Adam\Desktop\Rips\Anti-Flag – Their System Doesn’t Work For You\19 – Anti-Flag – I’m Feeling Slightly Violent.wav

Pre-gap length 0:00:02.00

Peak level 100.0 %
Track quality 100.0 %
Test CRC 691F39C1
Copy CRC 691F39C1
Copy OK

No errors occured

End of status report

REM GENRE “Punk Rock”
REM DATE 1998
REM DISCID EC0D6713
REM COMMENT “ExactAudioCopy v0.95b4”
PERFORMER “Anti-Flag”
TITLE “Their System Doesn’t Work For You”
FILE “01 – Anti-Flag – I Can’t Stand Being With You.wav” WAVE
TRACK 01 AUDIO
TITLE “I Can’t Stand Being With You”
PERFORMER “Anti-Flag”
INDEX 01 00:00:00
TRACK 02 AUDIO
TITLE “Their System Doesn’t Work For You”
PERFORMER “Anti-Flag”
INDEX 00 02:03:32
FILE “02 – Anti-Flag – Their System Doesn’t Work For You.wav” WAVE
INDEX 01 00:00:00
TRACK 03 AUDIO
TITLE “We’ve Got His Gun”
PERFORMER “Anti-Flag”
INDEX 00 02:29:29
FILE “03 – Anti-Flag – We’ve Got His Gun.wav” WAVE
INDEX 01 00:00:00
TRACK 04 AUDIO
TITLE “Born to Die”
PERFORMER “Anti-Flag”
INDEX 00 02:23:05
FILE “04 – Anti-Flag – Born to Die.wav” WAVE
INDEX 01 00:00:00
TRACK 05 AUDIO
TITLE “The Truth”
PERFORMER “Anti-Flag”
INDEX 00 02:03:27
FILE “05 – Anti-Flag – The Truth.wav” WAVE
INDEX 01 00:00:00
TRACK 06 AUDIO
TITLE “You’ll Scream Tonight”
PERFORMER “Anti-Flag”
INDEX 00 02:38:69
FILE “06 – Anti-Flag – You’ll Scream Tonight.wav” WAVE
INDEX 01 00:00:00
TRACK 07 AUDIO
TITLE “Indie Sux, Hardline Sux, Emo Sux, You Suck!”
PERFORMER “Anti-Flag”
INDEX 00 05:13:06
FILE “07 – Anti-Flag – Indie Sux, Hardline Sux, Emo Sux, You Suck!.wav” WAVE
INDEX 01 00:00:00
TRACK 08 AUDIO
TITLE “Anti-violent”
PERFORMER “Anti-Flag”
INDEX 00 02:03:58
FILE “08 – Anti-Flag – Anti-violent.wav” WAVE
INDEX 01 00:00:00
TRACK 09 AUDIO
TITLE “20 Years in Hell”
PERFORMER “Anti-Flag”
INDEX 00 03:03:42
FILE “09 – Anti-Flag – 20 Years in Hell.wav” WAVE
INDEX 01 00:00:00
TRACK 10 AUDIO
TITLE “I’m Having a Good Day”
PERFORMER “Anti-Flag”
INDEX 00 02:30:51
FILE “10 – Anti-Flag – I’m Having a Good Day.wav” WAVE
INDEX 01 00:00:00
TRACK 11 AUDIO
TITLE “I Don’t Want to Be Like You”
PERFORMER “Anti-Flag”
INDEX 00 02:39:18
FILE “11 – Anti-Flag – I Don’t Want to Be Like You.wav” WAVE
INDEX 01 00:00:00
TRACK 12 AUDIO
TITLE “Too Late”
PERFORMER “Anti-Flag”
INDEX 00 03:28:09
FILE “12 – Anti-Flag – Too Late.wav” WAVE
INDEX 01 00:00:00
TRACK 13 AUDIO
TITLE “I Don’t Need Anybody”
PERFORMER “Anti-Flag”
INDEX 00 02:48:46
FILE “13 – Anti-Flag – I Don’t Need Anybody.wav” WAVE
INDEX 01 00:00:00
TRACK 14 AUDIO
TITLE “Betty Sue is Dead”
PERFORMER “Anti-Flag”
INDEX 00 03:47:22
FILE “14 – Anti-Flag – Betty Sue is Dead.wav” WAVE
INDEX 01 00:00:00
TRACK 15 AUDIO
TITLE “If Not For You”
PERFORMER “Anti-Flag”
INDEX 00 03:12:49
FILE “15 – Anti-Flag – If Not For You.wav” WAVE
INDEX 01 00:00:00
TRACK 16 AUDIO
TITLE “Meet Your Master”
PERFORMER “Anti-Flag”
INDEX 00 03:14:62
FILE “16 – Anti-Flag – Meet Your Master.wav” WAVE
INDEX 01 00:00:00
TRACK 17 AUDIO
TITLE “We Won’t Take No”
PERFORMER “Anti-Flag”
INDEX 00 03:55:30
FILE “17 – Anti-Flag – We Won’t Take No.wav” WAVE
INDEX 01 00:00:00
TRACK 18 AUDIO
TITLE “Save Me”
PERFORMER “Anti-Flag”
INDEX 00 02:32:13
FILE “18 – Anti-Flag – Save Me.wav” WAVE
INDEX 01 00:00:00
TRACK 19 AUDIO
TITLE “I’m Feeling Slightly Violent”
PERFORMER “Anti-Flag”
INDEX 00 02:58:25
FILE “19 – Anti-Flag – I’m Feeling Slightly Violent.wav” WAVE
INDEX 01 00:00:00


Leave a Reply

Your email address will not be published. Required fields are marked *

This site uses Akismet to reduce spam. Learn how your comment data is processed.