Anti-Flag – The People or the Gun




No Cover available

Artist: Anti-Flag
Year: 2009
Genre: Punk
Notes: Discogs
Add. Notes:
Watch Songs on: YouTube
Cover incl.: Yes
Encoder: FLAC
Bitrate: ~1000 kBit/s (44.1 kHz/16 Bit/s)
Log & Cue incl.: Yes/Yes
Size: 227,3 MB
Password: “slam” (without ” “)


All Downloads/Hosters are compatible

Download 1
KatFile.com
Turbobit.net
Rapidgator.net
Download 2
KatFile.com
Turbobit.net
Rapidgator.net

Tracklist:

1 - Sodom, Gomorrah, Washington D.C. (Sheep In 
Shepherd's Clothing) - 2:50
2 - The Economy Is Suffering...Let It Die - 3:36
3 - The Gre(a)t Depression - 3:08
4 - We Are The One - 3:07
5 - You Are Fired (Take This Job, Ah, F**k It) - 1:00
6 - This Is The First Night - 3:33
7 - No War Without Warriors (How Do You Sleep?) - 2:28
8 - When All The Lights Go Out - 3:08
9 - On Independence Day - 2:51
10 - The Old Guard - 4:17
11 - Teenage Kennedy Lobotomy - 1:06

EAC-Log, CUE-Sheed & NFO:

Click to open spoiler
Exact Audio Copy V0.99 prebeta 4 from 23. January 2008

EAC extraction logfile from 8. June 2009, 19:29

Anti-Flag / The People or the Gun

Used drive : SONY DVD RW DRU-720A Adapter: 0 ID: 0

Read mode : Secure
Utilize accurate stream : Yes
Defeat audio cache : Yes
Make use of C2 pointers : No

Read offset correction : 12
Overread into Lead-In and Lead-Out : No
Fill up missing offset samples with silence : Yes
Delete leading and trailing silent blocks : No
Null samples used in CRC calculations : Yes
Used interface : Native Win32 interface for Win NT & 2000
Gap handling : Appended to previous track

Used output format : User Defined Encoder
Selected bitrate : 192 kBit/s
Quality : High
Add ID3 tag : No
Command line compressor : C:\Program Files\Exact Audio Copy\Flac\flac.exe
Additional command line options : -V -8 -T “artist=%a” -T “title=%t” -T “album=%g” -T “date=%y” -T “tracknumber=%n” -T “genre=%m” %s

TOC of the extracted CD

Track | Start | Length | Start sector | End sector
———————————————————
1 | 0:00.00 | 2:50.30 | 0 | 12779
2 | 2:50.30 | 3:36.07 | 12780 | 28986
3 | 6:26.37 | 3:08.42 | 28987 | 43128
4 | 9:35.04 | 3:07.19 | 43129 | 57172
5 | 12:42.23 | 1:00.02 | 57173 | 61674
6 | 13:42.25 | 3:33.30 | 61675 | 77679
7 | 17:15.55 | 2:28.41 | 77680 | 88820
8 | 19:44.21 | 3:08.70 | 88821 | 102990
9 | 22:53.16 | 2:51.44 | 102991 | 115859
10 | 25:44.60 | 4:17.52 | 115860 | 135186
11 | 30:02.37 | 1:06.51 | 135187 | 140187

Track 1

Filename C:\rips\01 – Sodom, Gomorrah, Washington D.C. (Sheep in Shepherds Clothing).wav

Pre-gap length 0:00:02.00

Peak level 98.8 %
Track quality 100.0 %
Test CRC 434AD676
Copy CRC 434AD676
Track not present in AccurateRip database
Copy OK

Track 2

Filename C:\rips\02 – The Economy is Suffering…Let It Die.wav

Peak level 98.8 %
Track quality 100.0 %
Test CRC 5AB0B0FB
Copy CRC 5AB0B0FB
Track not present in AccurateRip database
Copy OK

Track 3

Filename C:\rips\03 – The Gre(A)t Depression.wav

Peak level 98.8 %
Track quality 100.0 %
Test CRC 1129A81B
Copy CRC 1129A81B
Track not present in AccurateRip database
Copy OK

Track 4

Filename C:\rips\04 – We Are The One.wav

Peak level 98.8 %
Track quality 100.0 %
Test CRC 013892F2
Copy CRC 013892F2
Track not present in AccurateRip database
Copy OK

Track 5

Filename C:\rips\05 – You Are Fired (Take This Job).wav

Peak level 98.8 %
Track quality 100.0 %
Test CRC 19F18A95
Copy CRC 19F18A95
Track not present in AccurateRip database
Copy OK

Track 6

Filename C:\rips\06 – This Is The First Night.wav

Peak level 98.8 %
Track quality 100.0 %
Test CRC 2ABEC550
Copy CRC 2ABEC550
Track not present in AccurateRip database
Copy OK

Track 7

Filename C:\rips\07 – No War Without Warriors (How Do You Sleep ).wav

Peak level 98.8 %
Track quality 100.0 %
Test CRC 16726F75
Copy CRC 16726F75
Track not present in AccurateRip database
Copy OK

Track 8

Filename C:\rips\08 – When All The Lights Go Out.wav

Peak level 98.8 %
Track quality 99.9 %
Test CRC 74242AFE
Copy CRC 74242AFE
Track not present in AccurateRip database
Copy OK

Track 9

Filename C:\rips\09 – On Independence Day.wav

Peak level 98.8 %
Track quality 100.0 %
Test CRC 9D94710F
Copy CRC 9D94710F
Track not present in AccurateRip database
Copy OK

Track 10

Filename C:\rips\10 – The Old Guard.wav

Peak level 98.8 %
Track quality 99.9 %
Test CRC 1ABE51E2
Copy CRC 1ABE51E2
Track not present in AccurateRip database
Copy OK

Track 11

Filename C:\rips\11 – Teenage Kennedy Lobotomy.wav

Pre-gap length 0:00:02.18

Peak level 98.8 %
Track quality 100.0 %
Test CRC 793CFF63
Copy CRC 793CFF63
Track not present in AccurateRip database
Copy OK

None of the tracks are present in the AccurateRip database

No errors occurred

End of status report

REM GENRE “Punk Rock”
REM DATE 2009
REM DISCID 99074D0B
REM COMMENT “ExactAudioCopy v0.99pb4”
PERFORMER “Anti-Flag”
TITLE “The People or the Gun”
FILE “01 – Sodom, Gomorrah, Washington D.C. (Sheep in Shepherds Clothing).wav” WAVE
TRACK 01 AUDIO
TITLE “Sodom, Gomorrah, Washington D.C. (Sheep in Shepherds Clothing)”
PERFORMER “Anti-Flag”
INDEX 01 00:00:00
FILE “02 – The Economy is Suffering…Let It Die.wav” WAVE
TRACK 02 AUDIO
TITLE “The Economy is Suffering…Let It Die”
PERFORMER “Anti-Flag”
INDEX 01 00:00:00
FILE “03 – The Gre(A)t Depression.wav” WAVE
TRACK 03 AUDIO
TITLE “The Gre(A)t Depression”
PERFORMER “Anti-Flag”
INDEX 01 00:00:00
FILE “04 – We Are The One.wav” WAVE
TRACK 04 AUDIO
TITLE “We Are The One”
PERFORMER “Anti-Flag”
INDEX 01 00:00:00
FILE “05 – You Are Fired (Take This Job).wav” WAVE
TRACK 05 AUDIO
TITLE “You Are Fired (Take This Job)”
PERFORMER “Anti-Flag”
INDEX 01 00:00:00
FILE “06 – This Is The First Night.wav” WAVE
TRACK 06 AUDIO
TITLE “This Is The First Night”
PERFORMER “Anti-Flag”
INDEX 01 00:00:00
FILE “07 – No War Without Warriors (How Do You Sleep ).wav” WAVE
TRACK 07 AUDIO
TITLE “No War Without Warriors (How Do You Sleep?)”
PERFORMER “Anti-Flag”
INDEX 01 00:00:00
FILE “08 – When All The Lights Go Out.wav” WAVE
TRACK 08 AUDIO
TITLE “When All The Lights Go Out”
PERFORMER “Anti-Flag”
INDEX 01 00:00:00
FILE “09 – On Independence Day.wav” WAVE
TRACK 09 AUDIO
TITLE “On Independence Day”
PERFORMER “Anti-Flag”
INDEX 01 00:00:00
FILE “10 – The Old Guard.wav” WAVE
TRACK 10 AUDIO
TITLE “The Old Guard”
PERFORMER “Anti-Flag”
INDEX 01 00:00:00
TRACK 11 AUDIO
TITLE “Teenage Kennedy Lobotomy”
PERFORMER “Anti-Flag”
INDEX 00 04:15:34
FILE “11 – Teenage Kennedy Lobotomy.wav” WAVE
INDEX 01 00:00:00


Leave a Reply

Your email address will not be published. Required fields are marked *

Enter the text from the image below
 

This site uses Akismet to reduce spam. Learn how your comment data is processed.