Anti-Flag – The General Strike




No Cover available

Artist: Anti-Flag
Year: 2012
Genre: Punk
Notes: Discogs
Add. Notes:
Watch Songs on: YouTube
Cover incl.: Yes
Encoder: FLAC
Bitrate: ~1000 kBit/s (44.1 kHz/16 Bit/s)
Log & Cue incl.: Yes/Yes
Size: 222,8 MB
Password: “slam” (without ” “)


All Downloads/Hosters are compatible

Download 1
KatFile.com
Turbobit.net
Rapidgator.net
Download 2
KatFile.com
Turbobit.net
Rapidgator.net

Tracklist:

1 - Controlled Opposition - 0:21
2 - The Neoliberal Anthem - 3:17
3 - 1915 - 2:51
4 - This Is The New Sound - 2:45
5 - Bullshit Opportunist - 2:35
6 - The Ranks Of The Masses Rising - 2:28
7 - Turn A Blind Eye - 1:19
8 - Broken Bones - 3:01
9 - I Don't Wanna - 2:27
10 - Nothing Recedes Like Progress - 2:17
11 - Resist - 1:02
12 - The Ghosts Of Alexandria - 2:57

EAC-Log, CUE-Sheed & NFO:

Click to open spoiler
Exact Audio Copy V0.99 prebeta 5 from 4. May 2009

EAC extraction logfile from 3. May 2012, 22:27

Anti-Flag / The General Strike

Used drive : ASUS DRW-1814BLT Adapter: 3 ID: 0

Read mode : Secure
Utilize accurate stream : Yes
Defeat audio cache : Yes
Make use of C2 pointers : No

Read offset correction : 6
Overread into Lead-In and Lead-Out : No
Fill up missing offset samples with silence : Yes
Delete leading and trailing silent blocks : No
Null samples used in CRC calculations : Yes
Used interface : Native Win32 interface for Win NT & 2000
Gap handling : Appended to previous track

Used output format : User Defined Encoder
Selected bitrate : 1024 kBit/s
Quality : High
Add ID3 tag : No
Command line compressor : C:\Program Files\Exact Audio Copy\Flac\flac.exe
Additional command line options : -8 -V %s

TOC of the extracted CD

Track | Start | Length | Start sector | End sector
———————————————————
1 | 0:00.00 | 0:21.43 | 0 | 1617
2 | 0:21.43 | 3:17.73 | 1618 | 16465
3 | 3:39.41 | 2:51.64 | 16466 | 29354
4 | 6:31.30 | 2:45.58 | 29355 | 41787
5 | 9:17.13 | 2:35.52 | 41788 | 53464
6 | 11:52.65 | 2:28.39 | 53465 | 64603
7 | 14:21.29 | 1:19.28 | 64604 | 70556
8 | 15:40.57 | 3:01.34 | 70557 | 84165
9 | 18:42.16 | 2:27.18 | 84166 | 95208
10 | 21:09.34 | 2:17.67 | 95209 | 105550
11 | 23:27.26 | 1:02.09 | 105551 | 110209
12 | 24:29.35 | 2:57.74 | 110210 | 123558

Track 1

Filename E:\Anti-Flag – The General Strike\01. Controlled Opposition.wav

Pre-gap length 0:00:02.00

Peak level 99.9 %
Track quality 99.5 %
Test CRC EB3EE2E0
Copy CRC EB3EE2E0
Track not present in AccurateRip database
Copy OK

Track 2

Filename E:\Anti-Flag – The General Strike\02. The Neoliberal Anthem.wav

Peak level 99.9 %
Track quality 100.0 %
Test CRC 53278310
Copy CRC 53278310
Track not present in AccurateRip database
Copy OK

Track 3

Filename E:\Anti-Flag – The General Strike\03. 1915.wav

Peak level 99.9 %
Track quality 100.0 %
Test CRC FE82E302
Copy CRC FE82E302
Track not present in AccurateRip database
Copy OK

Track 4

Filename E:\Anti-Flag – The General Strike\04. This is the New Sound.wav

Peak level 99.9 %
Track quality 100.0 %
Test CRC DBEA2622
Copy CRC DBEA2622
Track not present in AccurateRip database
Copy OK

Track 5

Filename E:\Anti-Flag – The General Strike\05. Bullshit Opportunist.wav

Peak level 99.9 %
Track quality 100.0 %
Test CRC F5674091
Copy CRC F5674091
Track not present in AccurateRip database
Copy OK

Track 6

Filename E:\Anti-Flag – The General Strike\06. The Ranks of the Masses Rising.wav

Peak level 99.9 %
Track quality 100.0 %
Test CRC F51A60FF
Copy CRC F51A60FF
Track not present in AccurateRip database
Copy OK

Track 7

Filename E:\Anti-Flag – The General Strike\07. Turn a Blind Eye.wav

Peak level 99.9 %
Track quality 99.8 %
Test CRC 0A2600C3
Copy CRC 0A2600C3
Track not present in AccurateRip database
Copy OK

Track 8

Filename E:\Anti-Flag – The General Strike\08. Broken Bones.wav

Peak level 99.9 %
Track quality 100.0 %
Test CRC 9280E94F
Copy CRC 9280E94F
Track not present in AccurateRip database
Copy OK

Track 9

Filename E:\Anti-Flag – The General Strike\09. I Don’t Wanna.wav

Peak level 99.9 %
Track quality 100.0 %
Test CRC 4344F81F
Copy CRC 4344F81F
Track not present in AccurateRip database
Copy OK

Track 10

Filename E:\Anti-Flag – The General Strike\10. Nothing Recedes Like Progress.wav

Peak level 99.9 %
Track quality 100.0 %
Test CRC 5BC69FFF
Copy CRC 5BC69FFF
Track not present in AccurateRip database
Copy OK

Track 11

Filename E:\Anti-Flag – The General Strike\11. Resist.wav

Peak level 99.9 %
Track quality 99.8 %
Test CRC 7A71A122
Copy CRC 7A71A122
Track not present in AccurateRip database
Copy OK

Track 12

Filename E:\Anti-Flag – The General Strike\12. The Ghosts of Alexandria.wav

Peak level 99.9 %
Track quality 99.9 %
Test CRC 1B4D8E60
Copy CRC 1B4D8E60
Track not present in AccurateRip database
Copy OK

None of the tracks are present in the AccurateRip database

No errors occurred

End of status report

REM GENRE “Punk Rock”
REM DATE 2012
REM DISCID 88066F0C
REM COMMENT “ExactAudioCopy v0.99pb5”
PERFORMER “Anti-Flag”
TITLE “The General Strike”
FILE “01. Controlled Opposition.wav” WAVE
TRACK 01 AUDIO
TITLE “Controlled Opposition”
PERFORMER “Anti-Flag”
INDEX 01 00:00:00
FILE “02. The Neoliberal Anthem.wav” WAVE
TRACK 02 AUDIO
TITLE “The Neoliberal Anthem”
PERFORMER “Anti-Flag”
INDEX 01 00:00:00
FILE “03. 1915.wav” WAVE
TRACK 03 AUDIO
TITLE “1915”
PERFORMER “Anti-Flag”
INDEX 01 00:00:00
FILE “04. This is the New Sound.wav” WAVE
TRACK 04 AUDIO
TITLE “This is the New Sound”
PERFORMER “Anti-Flag”
INDEX 01 00:00:00
FILE “05. Bullshit Opportunist.wav” WAVE
TRACK 05 AUDIO
TITLE “Bullshit Opportunist”
PERFORMER “Anti-Flag”
INDEX 01 00:00:00
FILE “06. The Ranks of the Masses Rising.wav” WAVE
TRACK 06 AUDIO
TITLE “The Ranks of the Masses Rising”
PERFORMER “Anti-Flag”
INDEX 01 00:00:00
FILE “07. Turn a Blind Eye.wav” WAVE
TRACK 07 AUDIO
TITLE “Turn a Blind Eye”
PERFORMER “Anti-Flag”
INDEX 01 00:00:00
FILE “08. Broken Bones.wav” WAVE
TRACK 08 AUDIO
TITLE “Broken Bones”
PERFORMER “Anti-Flag”
INDEX 01 00:00:00
FILE “09. I Don’t Wanna.wav” WAVE
TRACK 09 AUDIO
TITLE “I Don’t Wanna”
PERFORMER “Anti-Flag”
INDEX 01 00:00:00
FILE “10. Nothing Recedes Like Progress.wav” WAVE
TRACK 10 AUDIO
TITLE “Nothing Recedes Like Progress”
PERFORMER “Anti-Flag”
INDEX 01 00:00:00
FILE “11. Resist.wav” WAVE
TRACK 11 AUDIO
TITLE “Resist”
PERFORMER “Anti-Flag”
INDEX 01 00:00:00
FILE “12. The Ghosts of Alexandria.wav” WAVE
TRACK 12 AUDIO
TITLE “The Ghosts of Alexandria”
PERFORMER “Anti-Flag”
INDEX 01 00:00:00


Leave a Reply

Your email address will not be published. Required fields are marked *

This site uses Akismet to reduce spam. Learn how your comment data is processed.