Anti-Flag – The Bright Lights Of America




No Cover available

Artist: Anti-Flag
Year: 2008
Genre: Punk
Notes: Discogs
Add. Notes:
Watch Songs on: YouTube
Cover incl.: Yes
Encoder: FLAC
Bitrate: ~900 kBit/s (44.1 kHz/16 Bit/s)
Log & Cue incl.: Yes/Yes
Size: 372,97 MB
Password: “slam” (without ” “)


All Downloads/Hosters are compatible

Download 1
KatFile.com
Rapidgator.net
FileFactory.com
Share-online.biz
Download 2
KatFile.com
Rapidgator.net
FileFactory.com
Share-online.biz

Tracklist:

1 - Good And Ready - 3:59
2 - The Bright Lights Of America - 3:32
3 - Vices - 4:59
4 - The Modern Rome Burning - 4:19
5 - If You Wanna Steal - 4:04
6 - No Warning - 3:00
7 - Spit In The Face - 4:09
8 - We Are The Lost - 4:17
9 - Go West - 4:19
10 - The Smartest Bomb - 3:48
11 - Shadow Of The Dead - 3:51
12 - The Ink And The Quill - 4:34
13 - Tar And Sagebrush - 3:12

EAC-Log, CUE-Sheed & NFO:

Click to open spoiler
Exact Audio Copy V0.99 prebeta 4 from 23. January 2008

EAC extraction logfile from 12. May 2009, 15:36

Anti-Flag / The Bright Lights Of America

Used drive : PHILIPS CDRW/DVD CDD5263 Adapter: 0 ID: 0

Read mode : Secure
Utilize accurate stream : Yes
Defeat audio cache : Yes
Make use of C2 pointers : No

Read offset correction : 594
Overread into Lead-In and Lead-Out : No
Fill up missing offset samples with silence : Yes
Delete leading and trailing silent blocks : No
Null samples used in CRC calculations : Yes
Used interface : Native Win32 interface for Win NT & 2000
Gap handling : Appended to previous track

Used output format : Internal WAV Routines
Sample format : 44.100 Hz; 16 Bit; Stereo

TOC of the extracted CD

Track | Start | Length | Start sector | End sector
———————————————————
1 | 0:00.00 | 3:59.27 | 0 | 17951
2 | 3:59.27 | 3:32.00 | 17952 | 33851
3 | 7:31.27 | 4:59.20 | 33852 | 56296
4 | 12:30.47 | 4:19.18 | 56297 | 75739
5 | 16:49.65 | 4:04.32 | 75740 | 94071
6 | 20:54.22 | 3:00.60 | 94072 | 107631
7 | 23:55.07 | 4:09.20 | 107632 | 126326
8 | 28:04.27 | 4:17.35 | 126327 | 145636
9 | 32:21.62 | 4:19.73 | 145637 | 165134
10 | 36:41.60 | 3:48.07 | 165135 | 182241
11 | 40:29.67 | 3:51.73 | 182242 | 199639
12 | 44:21.65 | 4:34.65 | 199640 | 220254
13 | 48:56.55 | 3:12.72 | 220255 | 234726

Track 1

Filename C:\Documents and Settings\Administrator\Desktop\what.cd\The Bright Lights Of America\Anti-Flag – 2008 – The Bright Lights Of America – 01 – Good And Ready.wav

Pre-gap length 0:00:02.00

Peak level 100.0 %
Track quality 100.0 %
Test CRC C0FDFDA2
Copy CRC C0FDFDA2
Accurately ripped (confidence 7) [ECAAF246]
Copy OK

Track 2

Filename C:\Documents and Settings\Administrator\Desktop\what.cd\The Bright Lights Of America\Anti-Flag – 2008 – The Bright Lights Of America – 02 – The Bright Lights Of America.wav

Peak level 100.0 %
Track quality 100.0 %
Test CRC 70FFC614
Copy CRC 70FFC614
Accurately ripped (confidence 7) [89F65899]
Copy OK

Track 3

Filename C:\Documents and Settings\Administrator\Desktop\what.cd\The Bright Lights Of America\Anti-Flag – 2008 – The Bright Lights Of America – 03 – Vices.wav

Peak level 100.0 %
Track quality 100.0 %
Test CRC C7B5F05A
Copy CRC C7B5F05A
Accurately ripped (confidence 7) [E12DBD79]
Copy OK

Track 4

Filename C:\Documents and Settings\Administrator\Desktop\what.cd\The Bright Lights Of America\Anti-Flag – 2008 – The Bright Lights Of America – 04 – The Modern Rome Burning.wav

Peak level 100.0 %
Track quality 100.0 %
Test CRC 3AEA0356
Copy CRC 3AEA0356
Accurately ripped (confidence 7) [839751E6]
Copy OK

Track 5

Filename C:\Documents and Settings\Administrator\Desktop\what.cd\The Bright Lights Of America\Anti-Flag – 2008 – The Bright Lights Of America – 05 – If You Wanna Steal (You Better Learn How To Lie).wav

Pre-gap length 0:00:01.18

Peak level 100.0 %
Track quality 99.9 %
Test CRC D22CED36
Copy CRC D22CED36
Accurately ripped (confidence 7) [90C5CF4B]
Copy OK

Track 6

Filename C:\Documents and Settings\Administrator\Desktop\what.cd\The Bright Lights Of America\Anti-Flag – 2008 – The Bright Lights Of America – 06 – No Warning.wav

Pre-gap length 0:00:00.02

Peak level 100.0 %
Track quality 100.0 %
Test CRC D41C44AB
Copy CRC D41C44AB
Accurately ripped (confidence 7) [F53E6040]
Copy OK

Track 7

Filename C:\Documents and Settings\Administrator\Desktop\what.cd\The Bright Lights Of America\Anti-Flag – 2008 – The Bright Lights Of America – 07 – Spit In The Face.wav

Pre-gap length 0:00:02.62

Peak level 100.0 %
Track quality 100.0 %
Test CRC A945354D
Copy CRC A945354D
Accurately ripped (confidence 7) [FA66738D]
Copy OK

Track 8

Filename C:\Documents and Settings\Administrator\Desktop\what.cd\The Bright Lights Of America\Anti-Flag – 2008 – The Bright Lights Of America – 08 – We Are The Lost.wav

Pre-gap length 0:00:00.30

Peak level 100.0 %
Track quality 100.0 %
Test CRC 8C6A5EA8
Copy CRC 8C6A5EA8
Accurately ripped (confidence 7) [E7F6E3DB]
Copy OK

Track 9

Filename C:\Documents and Settings\Administrator\Desktop\what.cd\The Bright Lights Of America\Anti-Flag – 2008 – The Bright Lights Of America – 09 – Go West.wav

Peak level 100.0 %
Track quality 99.9 %
Test CRC 6E2ADB90
Copy CRC 6E2ADB90
Accurately ripped (confidence 7) [2C99F4FE]
Copy OK

Track 10

Filename C:\Documents and Settings\Administrator\Desktop\what.cd\The Bright Lights Of America\Anti-Flag – 2008 – The Bright Lights Of America – 10 – Smartest Bomb.wav

Peak level 100.0 %
Track quality 100.0 %
Test CRC DCCB9BFB
Copy CRC DCCB9BFB
Accurately ripped (confidence 7) [A4FAC13F]
Copy OK

Track 11

Filename C:\Documents and Settings\Administrator\Desktop\what.cd\The Bright Lights Of America\Anti-Flag – 2008 – The Bright Lights Of America – 11 – Shadow Of The Dead.wav

Peak level 100.0 %
Track quality 100.0 %
Test CRC C1C59E32
Copy CRC C1C59E32
Accurately ripped (confidence 7) [DEE5D9C4]
Copy OK

Track 12

Filename C:\Documents and Settings\Administrator\Desktop\what.cd\The Bright Lights Of America\Anti-Flag – 2008 – The Bright Lights Of America – 12 – The Ink And The Quill (Be Afraid).wav

Peak level 100.0 %
Track quality 100.0 %
Test CRC 1E426C88
Copy CRC 1E426C88
Accurately ripped (confidence 7) [55EE8766]
Copy OK

Track 13

Filename C:\Documents and Settings\Administrator\Desktop\what.cd\The Bright Lights Of America\Anti-Flag – 2008 – The Bright Lights Of America – 13 – Tar And Sagebrush.wav

Pre-gap length 0:00:12.30

Peak level 100.0 %
Track quality 99.9 %
Test CRC 83997F36
Copy CRC 83997F36
Accurately ripped (confidence 7) [D2F7B957]
Copy OK

All tracks accurately ripped

No errors occurred

End of status report

REM GENRE “Punk Rock”
REM DATE 2008
REM DISCID A10C390D
REM COMMENT “ExactAudioCopy v0.99pb4”
CATALOG ::010039302:5
PERFORMER “Anti-Flag”
TITLE “The Bright Lights Of America”
FILE “Anti-Flag – 2008 – The Bright Lights Of America – 01 – Good And Ready.wav” WAVE
TRACK 01 AUDIO
TITLE “Good And Ready”
PERFORMER “Anti-Flag”
ISRC ZP40>3000525
INDEX 01 00:00:00
FILE “Anti-Flag – 2008 – The Bright Lights Of America – 02 – The Bright Lights Of America.wav” WAVE
TRACK 02 AUDIO
TITLE “The Bright Lights Of America”
PERFORMER “Anti-Flag”
ISRC ZP40>3000525
INDEX 01 00:00:00
FILE “Anti-Flag – 2008 – The Bright Lights Of America – 03 – Vices.wav” WAVE
TRACK 03 AUDIO
TITLE “Vices”
PERFORMER “Anti-Flag”
ISRC ZP40>3000525
INDEX 01 00:00:00
FILE “Anti-Flag – 2008 – The Bright Lights Of America – 04 – The Modern Rome Burning.wav” WAVE
TRACK 04 AUDIO
TITLE “The Modern Rome Burning”
PERFORMER “Anti-Flag”
ISRC ZP40>3000525
INDEX 01 00:00:00
TRACK 05 AUDIO
TITLE “If You Wanna Steal (You Better Learn How To Lie)”
PERFORMER “Anti-Flag”
ISRC ZP40>3000525
INDEX 00 04:18:00
FILE “Anti-Flag – 2008 – The Bright Lights Of America – 05 – If You Wanna Steal (You Better Learn How To Lie).wav” WAVE
INDEX 01 00:00:00
TRACK 06 AUDIO
TITLE “No Warning”
PERFORMER “Anti-Flag”
ISRC ZP40>3000525
INDEX 00 04:04:30
FILE “Anti-Flag – 2008 – The Bright Lights Of America – 06 – No Warning.wav” WAVE
INDEX 01 00:00:00
TRACK 07 AUDIO
TITLE “Spit In The Face”
PERFORMER “Anti-Flag”
ISRC ZP40>3000525
INDEX 00 02:57:73
FILE “Anti-Flag – 2008 – The Bright Lights Of America – 07 – Spit In The Face.wav” WAVE
INDEX 01 00:00:00
TRACK 08 AUDIO
TITLE “We Are The Lost”
PERFORMER “Anti-Flag”
ISRC ZP40>3000525
INDEX 00 04:08:65
FILE “Anti-Flag – 2008 – The Bright Lights Of America – 08 – We Are The Lost.wav” WAVE
INDEX 01 00:00:00
FILE “Anti-Flag – 2008 – The Bright Lights Of America – 09 – Go West.wav” WAVE
TRACK 09 AUDIO
TITLE “Go West”
PERFORMER “Anti-Flag”
ISRC ZP40>3000525
INDEX 01 00:00:00
FILE “Anti-Flag – 2008 – The Bright Lights Of America – 10 – Smartest Bomb.wav” WAVE
TRACK 10 AUDIO
TITLE “Smartest Bomb”
PERFORMER “Anti-Flag”
ISRC ZP40>3000525
INDEX 01 00:00:00
FILE “Anti-Flag – 2008 – The Bright Lights Of America – 11 – Shadow Of The Dead.wav” WAVE
TRACK 11 AUDIO
TITLE “Shadow Of The Dead”
PERFORMER “Anti-Flag”
ISRC ZP40>3000525
INDEX 01 00:00:00
FILE “Anti-Flag – 2008 – The Bright Lights Of America – 12 – The Ink And The Quill (Be Afraid).wav” WAVE
TRACK 12 AUDIO
TITLE “The Ink And The Quill (Be Afraid)”
PERFORMER “Anti-Flag”
ISRC ZP40>3000525
INDEX 01 00:00:00
TRACK 13 AUDIO
TITLE “Tar And Sagebrush”
PERFORMER “Anti-Flag”
ISRC ZP40>3000525
INDEX 00 04:22:35
FILE “Anti-Flag – 2008 – The Bright Lights Of America – 13 – Tar And Sagebrush.wav” WAVE
INDEX 01 00:00:00


Leave a Reply

Your email address will not be published. Required fields are marked *

Enter the text from the image below
 

This site uses Akismet to reduce spam. Learn how your comment data is processed.