Anti-Flag – Live At The Fireside Bowl




Artist: Anti-Flag
Year: 2003
Genre: Punk
Notes: Discogs
Add. Notes:
Encoder: FLAC
Bitrate: ~900 kBit/s (44.1 kHz/16 Bit/s)
Size: 92 MB
Password: “slam” (without ” “)


http://www.share-online.biz/dl/D0C89KRPRA
https://rapidgator.net/file/10b59d28ddf45d5484051b31cacc2f12
https://uploadbyte.com/uu5503trxly0
https://hitfile.net/jUszyI0

Tracklist:

1 - Their System Doesn't Work For 
You (Live) - 3:21
2 - Punk By The Book (Live) - 2:34
3 - They Don't Protect You (Live) - 
4:17
4 - I Don't Wanna Be A War Hero 
(Live) - 1:39

EAC-Log, CUE-Sheed & NFO:

Click to open spoiler
Exact Audio Copy V0.99 prebeta 5 from 4. May 2009

EAC extraction logfile from 17. September 2010, 14:20

Anti-Flag / Live At The Fireside Bowl

Used drive : ASUS DRW-1814BLT Adapter: 2 ID: 0

Read mode : Secure
Utilize accurate stream : Yes
Defeat audio cache : Yes
Make use of C2 pointers : No

Read offset correction : 6
Overread into Lead-In and Lead-Out : No
Fill up missing offset samples with silence : Yes
Delete leading and trailing silent blocks : No
Null samples used in CRC calculations : Yes
Used interface : Native Win32 interface for Win NT & 2000
Gap handling : Appended to previous track

Used output format : User Defined Encoder
Selected bitrate : 32 kBit/s
Quality : High
Add ID3 tag : No
Command line compressor : C:\Program Files\FLAC\flac.exe
Additional command line options : -8 -V -T “ARTIST=%a” -T “TITLE=%t” -T “ALBUM=%g” -T “DATE=%y” -T “TRACKNUMBER=%n” -T “GENRE=%m” -T “COMMENT=EAC FLAC -8 / By xen0m0rph” %s

TOC of the extracted CD

Track | Start | Length | Start sector | End sector
———————————————————
1 | 0:00.00 | 3:21.20 | 0 | 15094
2 | 3:21.20 | 2:34.13 | 15095 | 26657
3 | 5:55.33 | 4:17.67 | 26658 | 45999
4 | 10:13.25 | 1:39.00 | 46000 | 53424

Track 1

Filename D:\?????? ? Lossless ???????\Anti-Flag\EP & Singles\2003 – Live At The Fireside Bowl [L-37841]\01. Anti-Flag ? Their System Doesn’t Work For You.wav

Pre-gap length 0:00:02.00

Peak level 99.9 %
Track quality 100.0 %
Test CRC C50DC318
Copy CRC C50DC318
Accurately ripped (confidence 1) [EF168523]
Copy OK

Track 2

Filename D:\?????? ? Lossless ???????\Anti-Flag\EP & Singles\2003 – Live At The Fireside Bowl [L-37841]\02. Anti-Flag ? Punk by the Book.wav

Peak level 99.9 %
Track quality 100.0 %
Test CRC 2BBD4F7A
Copy CRC 2BBD4F7A
Accurately ripped (confidence 1) [34AC1D5D]
Copy OK

Track 3

Filename D:\?????? ? Lossless ???????\Anti-Flag\EP & Singles\2003 – Live At The Fireside Bowl [L-37841]\03. Anti-Flag ? They Don’t Protect You.wav

Peak level 98.6 %
Track quality 100.0 %
Test CRC 5465A5A3
Copy CRC 5465A5A3
Accurately ripped (confidence 1) [0FD1E604]
Copy OK

Track 4

Filename D:\?????? ? Lossless ???????\Anti-Flag\EP & Singles\2003 – Live At The Fireside Bowl [L-37841]\04. Anti-Flag ? I Don’t Wanna Be A War Hero.wav

Peak level 99.9 %
Track quality 100.0 %
Test CRC B6B0122B
Copy CRC B6B0122B
Accurately ripped (confidence 1) [59F9B0AE]
Copy OK

All tracks accurately ripped

No errors occurred

End of status report

REM GENRE Punk
REM DATE 2003
REM DISCID 2202C804
REM COMMENT “ExactAudioCopy v0.99pb5”
PERFORMER “Anti-Flag”
TITLE “Live At The Fireside Bowl”
FILE “01. Anti-Flag – Their System Doesn’t Work For You.wav” WAVE
TRACK 01 AUDIO
TITLE “Their System Doesn’t Work For You”
PERFORMER “Anti-Flag”
INDEX 01 00:00:00
FILE “02. Anti-Flag – Punk by the Book.wav” WAVE
TRACK 02 AUDIO
TITLE “Punk by the Book”
PERFORMER “Anti-Flag”
INDEX 01 00:00:00
FILE “03. Anti-Flag – They Don’t Protect You.wav” WAVE
TRACK 03 AUDIO
TITLE “They Don’t Protect You”
PERFORMER “Anti-Flag”
INDEX 01 00:00:00
FILE “04. Anti-Flag – I Don’t Wanna Be A War Hero.wav” WAVE
TRACK 04 AUDIO
TITLE “I Don’t Wanna Be A War Hero”
PERFORMER “Anti-Flag”
INDEX 01 00:00:00

Leave a Reply

Your email address will not be published. Required fields are marked *

This site uses Akismet to reduce spam. Learn how your comment data is processed.