Anti-Flag – For Blood And Empire




Artist: Anti-Flag
Year: 2006
Genre: Punk
Notes: Discogs
Add. Notes:
Encoder: FLAC
Bitrate: ~1000 kBit/s (44.1 kHz/16 Bit/s)
Size: 290 MB
Password: “slam” (without ” “)


http://www.share-online.biz/dl/D4W89KRPIVL2
https://rapidgator.net/file/88a68434e0f689084c44c4343426afee
https://uploadbyte.com/keap2nu88h6a
https://hitfile.net/Zly7ouc

Tracklist:

1 - I'd Tell You But... - 2:10
2 - The Press Corpse - 3:20
3 - Emigre - 2:59
4 - The Project For A New American 
Century - 3:17
5 - Hymn For The Dead - 3:39
6 - This Is The End (For You My 
Friend) - 3:12
7 - 1 Trillion Dollar$ - 2:30
8 - State Funeral - 2:01
9 - Confessions Of An Economic Hit 
Man - 2:43
10 - War Sucks, Let's Party! - 2:17
11 - The W.T.O. Kills Farmers - 3:32
12 - Cities Burn - 3:03
13 - Depleted Uranium Is A War 
Crime - 4:09

EAC-Log, CUE-Sheed & NFO:

Click to open spoiler
Exact Audio Copy V0.99 prebeta 3 from 28. July 2007

EAC extraction logfile from 8. November 2007, 13:14

ANTI-FLAG / FOR BLOOD AND EMPIRE

Used drive : Optiarc DVD+-RW ND-3570A Adapter: 1 ID: 0

Read mode : Secure
Utilize accurate stream : Yes
Defeat audio cache : Yes
Make use of C2 pointers : No

Read offset correction : 48
Overread into Lead-In and Lead-Out : No
Fill up missing offset samples with silence : Yes
Delete leading and trailing silent blocks : No
Null samples used in CRC calculations : Yes
Used interface : Installed external ASPI interface
Gap handling : Appended to previous track

Used output format : User Defined Encoder
Selected bitrate : 192 kBit/s
Quality : High
Add ID3 tag : No
Command line compressor : C:\Program Files\Exact Audio Copy\Flac\flac.exe
Additional command line options : -8 -A tukey(0.25) -A gauss(0.1875) -b 4096 -V -T “artist=%a” -T “title=%t” -T “album=%g” -T “date=%y” -T “tracknumber=%n” -T “genre=%m” %s –sector-align

TOC of the extracted CD

Track | Start | Length | Start sector | End sector
———————————————————
1 | 0:00.00 | 2:10.57 | 0 | 9806
2 | 2:10.57 | 3:20.33 | 9807 | 24839
3 | 5:31.15 | 2:59.72 | 24840 | 38336
4 | 8:31.12 | 3:17.40 | 38337 | 53151
5 | 11:48.52 | 3:39.18 | 53152 | 69594
6 | 15:27.70 | 3:12.05 | 69595 | 83999
7 | 18:40.00 | 2:30.50 | 84000 | 95299
8 | 21:10.50 | 2:01.65 | 95300 | 104439
9 | 23:12.40 | 2:43.27 | 104440 | 116691
10 | 25:55.67 | 2:17.73 | 116692 | 127039
11 | 28:13.65 | 3:32.52 | 127040 | 142991
12 | 31:46.42 | 3:03.40 | 142992 | 156756
13 | 34:50.07 | 4:07.35 | 156757 | 175316

Track 1

Filename E:\Anti-Flag\01. ANTI-FLAG – I’D TELL YOU BUT….wav

Pre-gap length 0:00:02.00

Peak level 99.7 %
Track quality 100.0 %
Test CRC 1FD9ED96
Copy CRC 1FD9ED96
Copy OK

Track 2

Filename E:\Anti-Flag\02. ANTI-FLAG – THEPRESS CORPSE.wav

Peak level 99.8 %
Track quality 100.0 %
Test CRC DD62F30E
Copy CRC DD62F30E
Copy OK

Track 3

Filename E:\Anti-Flag\03. ANTI-FLAG – EMIGRE.wav

Peak level 99.8 %
Track quality 99.9 %
Test CRC B59376AF
Copy CRC B59376AF
Copy OK

Track 4

Filename E:\Anti-Flag\04. ANTI-FLAG – THE PROJECT FOR A NEW AMERICAN CENTURY.wav

Peak level 99.8 %
Track quality 100.0 %
Test CRC D7B500CF
Copy CRC D7B500CF
Copy OK

Track 5

Filename E:\Anti-Flag\05. ANTI-FLAG – HYMN FOR THE DEAD.wav

Peak level 99.8 %
Track quality 100.0 %
Test CRC 574B2B28
Copy CRC 574B2B28
Copy OK

Track 6

Filename E:\Anti-Flag\06. ANTI-FLAG – THIS IS THE END (FOR YOU MY FRIEND).wav

Peak level 99.7 %
Track quality 100.0 %
Test CRC 83EA8332
Copy CRC 83EA8332
Copy OK

Track 7

Filename E:\Anti-Flag\07. ANTI-FLAG – 1 TRILLION DOLLAR$.wav

Peak level 99.7 %
Track quality 100.0 %
Test CRC 03C91E8D
Copy CRC 03C91E8D
Copy OK

Track 8

Filename E:\Anti-Flag\08. ANTI-FLAG – STATE FUNERAL.wav

Peak level 99.7 %
Track quality 99.9 %
Test CRC DA3649AB
Copy CRC DA3649AB
Copy OK

Track 9

Filename E:\Anti-Flag\09. ANTI-FLAG – CONFESSIONS OF AN ECONOMIC HIT MAN.wav

Peak level 99.8 %
Track quality 99.9 %
Test CRC 78DF03B7
Copy CRC 78DF03B7
Copy OK

Track 10

Filename E:\Anti-Flag\10. ANTI-FLAG – WAR SUCKS, LET’S PARTY !.wav

Peak level 99.7 %
Track quality 100.0 %
Test CRC 79F10886
Copy CRC 79F10886
Copy OK

Track 11

Filename E:\Anti-Flag\11. ANTI-FLAG – THE W.T.O. KILLS FARMERS.wav

Peak level 99.7 %
Track quality 100.0 %
Test CRC 927CB48A
Copy CRC 927CB48A
Copy OK

Track 12

Filename E:\Anti-Flag\12. ANTI-FLAG – CITIES BURN.wav

Peak level 99.7 %
Track quality 100.0 %
Test CRC B167AF11
Copy CRC B167AF11
Copy OK

Track 13

Filename E:\Anti-Flag\13. ANTI-FLAG – DEPLETED URANIUM IS A WAR CRIME.wav

Pre-gap length 0:00:01.36

Peak level 99.8 %
Track quality 100.0 %
Test CRC 6F8E0731
Copy CRC 6F8E0731
Copy OK

No errors occurred

End of status report

REM GENRE Punk
REM DATE 2006
REM DISCID 9F09210D
REM COMMENT “ExactAudioCopy v0.99pb3”
PERFORMER “ANTI-FLAG”
TITLE “FOR BLOOD AND EMPIRE”
FILE “01. ANTI-FLAG – I’D TELL YOU BUT….wav” WAVE
TRACK 01 AUDIO
TITLE “I’D TELL YOU BUT…”
PERFORMER “ANTI-FLAG”
INDEX 01 00:00:00
FILE “02. ANTI-FLAG – THEPRESS CORPSE.wav” WAVE
TRACK 02 AUDIO
TITLE “THEPRESS CORPSE”
PERFORMER “ANTI-FLAG”
INDEX 01 00:00:00
FILE “03. ANTI-FLAG – EMIGRE.wav” WAVE
TRACK 03 AUDIO
TITLE “EMIGRE”
PERFORMER “ANTI-FLAG”
INDEX 01 00:00:00
FILE “04. ANTI-FLAG – THE PROJECT FOR A NEW AMERICAN CENTURY.wav” WAVE
TRACK 04 AUDIO
TITLE “THE PROJECT FOR A NEW AMERICAN CENTURY”
PERFORMER “ANTI-FLAG”
INDEX 01 00:00:00
FILE “05. ANTI-FLAG – HYMN FOR THE DEAD.wav” WAVE
TRACK 05 AUDIO
TITLE “HYMN FOR THE DEAD”
PERFORMER “ANTI-FLAG”
INDEX 01 00:00:00
FILE “06. ANTI-FLAG – THIS IS THE END (FOR YOU MY FRIEND).wav” WAVE
TRACK 06 AUDIO
TITLE “THIS IS THE END (FOR YOU MY FRIEND)”
PERFORMER “ANTI-FLAG”
INDEX 01 00:00:00
FILE “07. ANTI-FLAG – 1 TRILLION DOLLAR$.wav” WAVE
TRACK 07 AUDIO
TITLE “1 TRILLION DOLLAR$”
PERFORMER “ANTI-FLAG”
INDEX 01 00:00:00
FILE “08. ANTI-FLAG – STATE FUNERAL.wav” WAVE
TRACK 08 AUDIO
TITLE “STATE FUNERAL”
PERFORMER “ANTI-FLAG”
INDEX 01 00:00:00
FILE “09. ANTI-FLAG – CONFESSIONS OF AN ECONOMIC HIT MAN.wav” WAVE
TRACK 09 AUDIO
TITLE “CONFESSIONS OF AN ECONOMIC HIT MAN”
PERFORMER “ANTI-FLAG”
INDEX 01 00:00:00
FILE “10. ANTI-FLAG – WAR SUCKS, LET’S PARTY !.wav” WAVE
TRACK 10 AUDIO
TITLE “WAR SUCKS, LET’S PARTY !”
PERFORMER “ANTI-FLAG”
INDEX 01 00:00:00
FILE “11. ANTI-FLAG – THE W.T.O. KILLS FARMERS.wav” WAVE
TRACK 11 AUDIO
TITLE “THE W.T.O. KILLS FARMERS”
PERFORMER “ANTI-FLAG”
INDEX 01 00:00:00
FILE “12. ANTI-FLAG – CITIES BURN.wav” WAVE
TRACK 12 AUDIO
TITLE “CITIES BURN”
PERFORMER “ANTI-FLAG”
INDEX 01 00:00:00
TRACK 13 AUDIO
TITLE “DEPLETED URANIUM IS A WAR CRIME”
PERFORMER “ANTI-FLAG”
INDEX 00 03:02:13
FILE “13. ANTI-FLAG – DEPLETED URANIUM IS A WAR CRIME.wav” WAVE
INDEX 01 00:00:00

Leave a Reply

Your email address will not be published. Required fields are marked *

This site uses Akismet to reduce spam. Learn how your comment data is processed.