Anti-Flag – American Spring




No Cover available

Artist: Anti-Flag
Year: 2015
Genre: Punk
Notes: Discogs
Add. Notes:
Watch Songs on: YouTube
Cover incl.: Yes
Encoder: FLAC
Bitrate: ~1000 kBit/s (44.1 kHz/16 Bit/s)
Log & Cue incl.: Yes
Size: 302,7 MB
Password: “slam” (without ” “)


All Downloads/Hosters are compatible

Download 1
KatFile.com
Turbobit.net
Rapidgator.net
Download 2
KatFile.com
Turbobit.net
Rapidgator.net

Tracklist:

1 - Fabled World - 3:14
2 - The Great Divide - 1:28
3 - Brandenburg Gate - 3:30
4 - Sky Is Falling - 4:14
5 - Walk Away - 3:14
6 - Song For Your Enemy - 3:18
7 - Set Yourself On Fire - 2:46
8 - All Of The Poison, All Of The Pain - 3:06
9 - Break Something - 2:48
10 - Without End - 3:08
11 - Believer - 2:55
12 - To Hell With Boredom - 0:48
13 - Low Expectations - 2:46
14 - The Debate Is Over (If You Want It) - 3:17

EAC-Log, CUE-Sheed & NFO:

Click to open spoiler
X Lossless Decoder version 20141129 (148.1)

XLD extraction logfile from 2015-05-26 21:15:21 -0700

Anti-Flag / American Spring

Used drive : PLEXTOR BDDVDR PX-B310U (revision 1.07)
Media type : Pressed CD

Ripper mode : XLD Secure Ripper
Disable audio cache : OK for the drive with a cache less than 1375KiB
Make use of C2 pointers : NO
Read offset correction : 6
Max retry count : 20
Gap status : Analyzed, Appended (except HTOA)

TOC of the extracted CD
Track | Start | Length | Start sector | End sector
———————————————————
1 | 00:00:00 | 03:14:23 | 0 | 14572
2 | 03:14:23 | 01:28:16 | 14573 | 21188
3 | 04:42:39 | 03:30:23 | 21189 | 36961
4 | 08:12:62 | 04:14:10 | 36962 | 56021
5 | 12:26:72 | 03:14:03 | 56022 | 70574
6 | 15:41:00 | 03:18:07 | 70575 | 85431
7 | 18:59:07 | 02:46:00 | 85432 | 97881
8 | 21:45:07 | 03:06:38 | 97882 | 111869
9 | 24:51:45 | 02:48:32 | 111870 | 124501
10 | 27:40:02 | 03:08:48 | 124502 | 138649
11 | 30:48:50 | 02:55:05 | 138650 | 151779
12 | 33:43:55 | 00:48:24 | 151780 | 155403
13 | 34:32:04 | 02:46:19 | 155404 | 167872
14 | 37:18:23 | 03:17:18 | 167873 | 182665

AccurateRip Summary
Disc not found in AccurateRip DB.

All Tracks
Album gain : -9.55 dB
Peak : 0.988556
Statistics
Read error : 0
Jitter error (maybe fixed) : 0
Retry sector count : 0
Damaged sector count : 0

Track 01
Filename : /Volumes/2015 FLAC/Anti-Flag – American Spring (2015) [FLAC]/01 – Fabled World.flac
Pre-gap length : 00:02:00

Track gain : -9.72 dB
Peak : 0.988556
CRC32 hash (test run) : E6C2548C
CRC32 hash : E6C2548C
CRC32 hash (skip zero) : 33A0E29A
AccurateRip v1 signature : 89913F2F
AccurateRip v2 signature : BCBAD170
->Track not present in AccurateRip database.
Statistics
Read error : 0
Jitter error (maybe fixed) : 0
Retry sector count : 0
Damaged sector count : 0

Track 02
Filename : /Volumes/2015 FLAC/Anti-Flag – American Spring (2015) [FLAC]/02 – The Great Divide.flac

Track gain : -9.75 dB
Peak : 0.969971
CRC32 hash (test run) : EC087E8C
CRC32 hash : EC087E8C
CRC32 hash (skip zero) : DA58E8F9
AccurateRip v1 signature : AD9A7C11
AccurateRip v2 signature : 219C92FA
->Track not present in AccurateRip database.
Statistics
Read error : 0
Jitter error (maybe fixed) : 0
Retry sector count : 0
Damaged sector count : 0

Track 03
Filename : /Volumes/2015 FLAC/Anti-Flag – American Spring (2015) [FLAC]/03 – Brandenburg Gate.flac

Track gain : -9.33 dB
Peak : 0.987610
CRC32 hash (test run) : 654223A5
CRC32 hash : 654223A5
CRC32 hash (skip zero) : F7DD34C4
AccurateRip v1 signature : 5001A891
AccurateRip v2 signature : DDE3C293
->Track not present in AccurateRip database.
Statistics
Read error : 0
Jitter error (maybe fixed) : 0
Retry sector count : 0
Damaged sector count : 0

Track 04
Filename : /Volumes/2015 FLAC/Anti-Flag – American Spring (2015) [FLAC]/04 – Sky Is Falling.flac

Track gain : -9.85 dB
Peak : 0.988556
CRC32 hash (test run) : C53F4736
CRC32 hash : C53F4736
CRC32 hash (skip zero) : D72BE4A4
AccurateRip v1 signature : 3DB72C9B
AccurateRip v2 signature : 4E2402D3
->Track not present in AccurateRip database.
Statistics
Read error : 0
Jitter error (maybe fixed) : 0
Retry sector count : 0
Damaged sector count : 0

Track 05
Filename : /Volumes/2015 FLAC/Anti-Flag – American Spring (2015) [FLAC]/05 – Walk Away.flac

Track gain : -9.33 dB
Peak : 0.987610
CRC32 hash (test run) : 0FE10E4F
CRC32 hash : 0FE10E4F
CRC32 hash (skip zero) : 2F75E041
AccurateRip v1 signature : 328183AC
AccurateRip v2 signature : 95AAFC90
->Track not present in AccurateRip database.
Statistics
Read error : 0
Jitter error (maybe fixed) : 0
Retry sector count : 0
Damaged sector count : 0

Track 06
Filename : /Volumes/2015 FLAC/Anti-Flag – American Spring (2015) [FLAC]/06 – Going For Your Enemy.flac

Track gain : -9.33 dB
Peak : 0.988556
CRC32 hash (test run) : 5CEC454F
CRC32 hash : 5CEC454F
CRC32 hash (skip zero) : 061EC283
AccurateRip v1 signature : 4471A499
AccurateRip v2 signature : 4D75E3C6
->Track not present in AccurateRip database.
Statistics
Read error : 0
Jitter error (maybe fixed) : 0
Retry sector count : 0
Damaged sector count : 0

Track 07
Filename : /Volumes/2015 FLAC/Anti-Flag – American Spring (2015) [FLAC]/07 – Set Yourself On Fire.flac

Track gain : -9.48 dB
Peak : 0.988556
CRC32 hash (test run) : BBAC6792
CRC32 hash : BBAC6792
CRC32 hash (skip zero) : 8C43901A
AccurateRip v1 signature : 40B11119
AccurateRip v2 signature : 1994F454
->Track not present in AccurateRip database.
Statistics
Read error : 0
Jitter error (maybe fixed) : 0
Retry sector count : 0
Damaged sector count : 0

Track 08
Filename : /Volumes/2015 FLAC/Anti-Flag – American Spring (2015) [FLAC]/08 – All Of The Poison All Of The Pain.flac

Track gain : -9.46 dB
Peak : 0.988556
CRC32 hash (test run) : 6CA71C57
CRC32 hash : 6CA71C57
CRC32 hash (skip zero) : 4C781D22
AccurateRip v1 signature : 1E54EDFD
AccurateRip v2 signature : 848E3D74
->Track not present in AccurateRip database.
Statistics
Read error : 0
Jitter error (maybe fixed) : 0
Retry sector count : 0
Damaged sector count : 0

Track 09
Filename : /Volumes/2015 FLAC/Anti-Flag – American Spring (2015) [FLAC]/09 – Break Somethink.flac

Track gain : -9.87 dB
Peak : 0.987610
CRC32 hash (test run) : CA6CE8E6
CRC32 hash : CA6CE8E6
CRC32 hash (skip zero) : 79F6A2B9
AccurateRip v1 signature : D631B4F9
AccurateRip v2 signature : C012905A
->Track not present in AccurateRip database.
Statistics
Read error : 0
Jitter error (maybe fixed) : 0
Retry sector count : 0
Damaged sector count : 0

Track 10
Filename : /Volumes/2015 FLAC/Anti-Flag – American Spring (2015) [FLAC]/10 – Without End.flac

Track gain : -9.68 dB
Peak : 0.987610
CRC32 hash (test run) : F3675554
CRC32 hash : F3675554
CRC32 hash (skip zero) : 0777ACDB
AccurateRip v1 signature : 20E2F058
AccurateRip v2 signature : E4B2C95E
->Track not present in AccurateRip database.
Statistics
Read error : 0
Jitter error (maybe fixed) : 0
Retry sector count : 0
Damaged sector count : 0

Track 11
Filename : /Volumes/2015 FLAC/Anti-Flag – American Spring (2015) [FLAC]/11 – Believer.flac

Track gain : -8.94 dB
Peak : 0.988556
CRC32 hash (test run) : 47838770
CRC32 hash : 47838770
CRC32 hash (skip zero) : F35512BF
AccurateRip v1 signature : F9CAC6F8
AccurateRip v2 signature : 38BB26F4
->Track not present in AccurateRip database.
Statistics
Read error : 0
Jitter error (maybe fixed) : 0
Retry sector count : 0
Damaged sector count : 0

Track 12
Filename : /Volumes/2015 FLAC/Anti-Flag – American Spring (2015) [FLAC]/12 – To Hell With Boredom.flac

Track gain : -9.75 dB
Peak : 0.988556
CRC32 hash (test run) : 8F9027CB
CRC32 hash : 8F9027CB
CRC32 hash (skip zero) : 258F10AE
AccurateRip v1 signature : 91112469
AccurateRip v2 signature : E0A24B46
->Track not present in AccurateRip database.
Statistics
Read error : 0
Jitter error (maybe fixed) : 0
Retry sector count : 0
Damaged sector count : 0

Track 13
Filename : /Volumes/2015 FLAC/Anti-Flag – American Spring (2015) [FLAC]/13 – Low Expectations.flac

Track gain : -9.47 dB
Peak : 0.987762
CRC32 hash (test run) : 72FC5D60
CRC32 hash : 72FC5D60
CRC32 hash (skip zero) : 5BBF3F72
AccurateRip v1 signature : F7D03889
AccurateRip v2 signature : 41345388
->Track not present in AccurateRip database.
Statistics
Read error : 0
Jitter error (maybe fixed) : 0
Retry sector count : 0
Damaged sector count : 0

Track 14
Filename : /Volumes/2015 FLAC/Anti-Flag – American Spring (2015) [FLAC]/14 – The Debate Is Over.flac

Track gain : -8.94 dB
Peak : 0.988556
CRC32 hash (test run) : 817D406F
CRC32 hash : 817D406F
CRC32 hash (skip zero) : 348F0C4C
AccurateRip v1 signature : 410EC2E2
AccurateRip v2 signature : 6E668147
->Track not present in AccurateRip database.
Statistics
Read error : 0
Jitter error (maybe fixed) : 0
Retry sector count : 0
Damaged sector count : 0

No errors occurred

End of status report

—–BEGIN XLD SIGNATURE—–
xcwli8hd0xE.qZRE2XrXSwuVWAVolQObhSWXuaB6OrJnwToGbhEPn4ppjvaIO3f5_.VDLTg7rfc5t9izU8PkPwCpAX4EdpqWpzc1Y6S
—–END XLD SIGNATURE—–

TITLE “American Spring”
PERFORMER “Anti-Flag”
CATALOG 0602547266002
REM GENRE “Rock”
REM DATE “2015”
REM DISCID B209830E
REM REPLAYGAIN_ALBUM_GAIN -9.55 dB
REM REPLAYGAIN_ALBUM_PEAK 0.988556
FILE “01 – Fabled World.flac” WAVE
TRACK 01 AUDIO
TITLE “Fabled World”
ISRC GBUM71500912
REM REPLAYGAIN_TRACK_GAIN -9.72 dB
REM REPLAYGAIN_TRACK_PEAK 0.988556
INDEX 01 00:00:00
FILE “02 – The Great Divide.flac” WAVE
TRACK 02 AUDIO
TITLE “The Great Divide”
ISRC GBUM71500919
REM REPLAYGAIN_TRACK_GAIN -9.75 dB
REM REPLAYGAIN_TRACK_PEAK 0.969971
INDEX 01 00:00:00
FILE “03 – Brandenburg Gate.flac” WAVE
TRACK 03 AUDIO
TITLE “Brandenburg Gate”
ISRC GBUM71500907
REM REPLAYGAIN_TRACK_GAIN -9.33 dB
REM REPLAYGAIN_TRACK_PEAK 0.987610
INDEX 01 00:00:00
FILE “04 – Sky Is Falling.flac” WAVE
TRACK 04 AUDIO
TITLE “Sky Is Falling”
ISRC GBUM71500916
REM REPLAYGAIN_TRACK_GAIN -9.85 dB
REM REPLAYGAIN_TRACK_PEAK 0.988556
INDEX 01 00:00:00
FILE “05 – Walk Away.flac” WAVE
TRACK 05 AUDIO
TITLE “Walk Away”
ISRC GBUM71500922
REM REPLAYGAIN_TRACK_GAIN -9.33 dB
REM REPLAYGAIN_TRACK_PEAK 0.987610
INDEX 01 00:00:00
FILE “06 – Going For Your Enemy.flac” WAVE
TRACK 06 AUDIO
TITLE “Going For Your Enemy”
ISRC GBUM71500917
REM REPLAYGAIN_TRACK_GAIN -9.33 dB
REM REPLAYGAIN_TRACK_PEAK 0.988556
INDEX 01 00:00:00
FILE “07 – Set Yourself On Fire.flac” WAVE
TRACK 07 AUDIO
TITLE “Set Yourself On Fire”
ISRC GBUM71500915
REM REPLAYGAIN_TRACK_GAIN -9.48 dB
REM REPLAYGAIN_TRACK_PEAK 0.988556
INDEX 01 00:00:00
FILE “08 – All Of The Poison All Of The Pain.flac” WAVE
TRACK 08 AUDIO
TITLE “All Of The Poison All Of The Pain”
ISRC GBUM71500905
REM REPLAYGAIN_TRACK_GAIN -9.46 dB
REM REPLAYGAIN_TRACK_PEAK 0.988556
INDEX 01 00:00:00
FILE “09 – Break Somethink.flac” WAVE
TRACK 09 AUDIO
TITLE “Break Somethink”
ISRC GBUM71500908
REM REPLAYGAIN_TRACK_GAIN -9.87 dB
REM REPLAYGAIN_TRACK_PEAK 0.987610
INDEX 01 00:00:00
FILE “10 – Without End.flac” WAVE
TRACK 10 AUDIO
TITLE “Without End”
ISRC GBUM71500923
REM REPLAYGAIN_TRACK_GAIN -9.68 dB
REM REPLAYGAIN_TRACK_PEAK 0.987610
INDEX 01 00:00:00
FILE “11 – Believer.flac” WAVE
TRACK 11 AUDIO
TITLE “Believer”
ISRC GBUM71500906
REM REPLAYGAIN_TRACK_GAIN -8.94 dB
REM REPLAYGAIN_TRACK_PEAK 0.988556
INDEX 01 00:00:00
FILE “12 – To Hell With Boredom.flac” WAVE
TRACK 12 AUDIO
TITLE “To Hell With Boredom”
ISRC GBUM71500921
REM REPLAYGAIN_TRACK_GAIN -9.75 dB
REM REPLAYGAIN_TRACK_PEAK 0.988556
INDEX 01 00:00:00
FILE “13 – Low Expectations.flac” WAVE
TRACK 13 AUDIO
TITLE “Low Expectations”
ISRC GBUM71500914
REM REPLAYGAIN_TRACK_GAIN -9.47 dB
REM REPLAYGAIN_TRACK_PEAK 0.987762
INDEX 01 00:00:00
FILE “14 – The Debate Is Over.flac” WAVE
TRACK 14 AUDIO
TITLE “The Debate Is Over”
ISRC GBUM71500918
REM REPLAYGAIN_TRACK_GAIN -8.94 dB
REM REPLAYGAIN_TRACK_PEAK 0.988556
INDEX 01 00:00:00


Leave a Reply

Your email address will not be published. Required fields are marked *

Enter the text from the image below
 

This site uses Akismet to reduce spam. Learn how your comment data is processed.