Annihilator – Ballistic, Sadistic




No Cover available


Artist: Annihilator
Year: 2020
Genre: Metal
Notes: Discogs
Add. Notes:
Watch Songs on: YouTube
Cover incl.: Yes
Encoder: FLAC
Bitrate: ~1000 kBit/s (44.1 kHz/16 Bit/s)
Log & Cue incl.: Yes/Yes
Size: 326,5 MB
Password: “slam” (without ” “)


All Downloads/Hosters are compatible

Download 1
KatFile.com
Turbobit.net
Rapidgator.net
FileFactory.com
Download 2
KatFile.com
Turbobit.net
Rapidgator.net
FileFactory.com

Tracklist:

1 Armed To The Teeth 4:26
2 The Attitude 4:01
3 Psycho Ward 4:39
4 I Am Warfare 4:47
5 Out With The Garbage 4:26
6 Dressed Up For Evil 4:40
7 Riot 3:45
8 One Wrong Move 4:35
9 Lip Service 5:48
10 The End Of The Lie 4:15

EAC-Log, CUE-Sheed & NFO:

Click to open spoiler
Exact Audio Copy V1.1 from 23. June 2015

EAC extraction logfile from 4. February 2020, 7:08

Annihilator / Ballistic Sadistic

Used drive : PIONEER BD-RW BDR-209D Adapter: 0 ID: 5

Read mode : Secure
Utilize accurate stream : Yes
Defeat audio cache : Yes
Make use of C2 pointers : No

Read offset correction : 667
Overread into Lead-In and Lead-Out : No
Fill up missing offset samples with silence : Yes
Delete leading and trailing silent blocks : No
Null samples used in CRC calculations : Yes
Used interface : Installed external ASPI interface

Used output format : User Defined Encoder
Selected bitrate : 768 kBit/s
Quality : High
Add ID3 tag : No
Command line compressor : C:\Program Files (x86)\Exact Audio Copy\FLAC\FLAC.EXE
Additional command line options : -6 -V -T “ARTIST=%artist%” -T “TITLE=%title%” -T “ALBUM=%albumtitle%” -T “DATE=%year%” -T “TRACKNUMBER=%tracknr%” -T “GENRE=%genre%” -T “COMMENT=%comment%” -T “BAND=%albuminterpret%” -T “ALBUMARTIST=%albuminterpret%” -T “COMPOSER=%composer%” %haslyrics%–tag-from-file=LYRICS=”%lyricsfile%”%haslyrics% -T “DISCNUMBER=%cdnumber%” -T “TOTALDISCS=%totalcds%” -T “TOTALTRACKS=%numtracks%” %hascover%–picture=”%coverfile%”%hascover% %source% -o %dest%

TOC of the extracted CD

Track | Start | Length | Start sector | End sector
———————————————————
1 | 0:00.00 | 4:26.02 | 0 | 19951
2 | 4:26.02 | 4:01.45 | 19952 | 38071
3 | 8:27.47 | 4:39.30 | 38072 | 59026
4 | 13:07.02 | 4:47.01 | 59027 | 80552
5 | 17:54.03 | 4:26.62 | 80553 | 100564
6 | 22:20.65 | 4:40.66 | 100565 | 121630
7 | 27:01.56 | 3:45.56 | 121631 | 138561
8 | 30:47.37 | 4:35.49 | 138562 | 159235
9 | 35:23.11 | 5:48.41 | 159236 | 185376
10 | 41:11.52 | 4:15.69 | 185377 | 204570

Range status and errors

Selected range

Filename E:\MUSIC\Annihilator – Ballistic Sadistic.wav

Peak level 98.8 %
Extraction speed 7.6 X
Range quality 100.0 %
Test CRC 6C3B07AD
Copy CRC 6C3B07AD
Copy OK

No errors occurred

AccurateRip summary

Track 1 not present in database
Track 2 not present in database
Track 3 not present in database
Track 4 not present in database
Track 5 not present in database
Track 6 not present in database
Track 7 not present in database
Track 8 not present in database
Track 9 not present in database
Track 10 not present in database

None of the tracks are present in the AccurateRip database

End of status report

==== Log checksum BD39CC797E94DA869A7AA851397724B3A682FF80E8044632264B45160D3B68B3 ====

REM GENRE Thrash Metal
REM DATE 2020
REM DISCID 8C0AA70A
REM COMMENT “ExactAudioCopy v1.1”
PERFORMER “Annihilator”
TITLE “Ballistic Sadistic”
FILE “Annihilator – Ballistic, Sadistic.flac” WAVE
TRACK 01 AUDIO
TITLE “Armed To The Teeth”
PERFORMER “Annihilator”
INDEX 01 00:00:00
TRACK 02 AUDIO
TITLE “The Attitude”
PERFORMER “Annihilator”
INDEX 01 04:26:02
TRACK 03 AUDIO
TITLE “Psycho Ward”
PERFORMER “Annihilator”
INDEX 01 08:27:47
TRACK 04 AUDIO
TITLE “I Am Warfare”
PERFORMER “Annihilator”
INDEX 01 13:07:02
TRACK 05 AUDIO
TITLE “Out With The Garbage”
PERFORMER “Annihilator”
INDEX 01 17:54:03
TRACK 06 AUDIO
TITLE “Dressed Up For Evil”
PERFORMER “Annihilator”
INDEX 01 22:20:65
TRACK 07 AUDIO
TITLE “Riot”
PERFORMER “Annihilator”
INDEX 01 27:01:56
TRACK 08 AUDIO
TITLE “One Wrong Move”
PERFORMER “Annihilator”
INDEX 01 30:47:37
TRACK 09 AUDIO
TITLE “Lip Service”
PERFORMER “Annihilator”
INDEX 01 35:23:11
TRACK 10 AUDIO
TITLE “The End Of The Lie”
PERFORMER “Annihilator”
INDEX 00 41:11:09
INDEX 01 41:11:52


0

Publication author

offline 5 days

Chaos

3
Comments: 4Publics: 3565Registration: 02-02-2019
Spread the Download

Leave a Reply

Your email address will not be published. Required fields are marked *

Enter the text from the image below
 

This site uses Akismet to reduce spam. Learn how your comment data is processed.