Angellore – Rien Ne Devait Mourir




No Cover available

Artist: Angellore
Year: 2020
Genre: Metal
Notes: Discogs
Add. Notes:
Watch Songs on: YouTube
Cover incl.: Yes
Encoder: FLAC
Bitrate: ~900 kBit/s (44.1 kHz/16 Bit/s)
Log & Cue incl.: Yes/Yes
Size: 505,3 MB
Password: “slam” (without ” “)


All Downloads/Hosters are compatible

Download 1
KatFile.com
Turbobit.net
Rapidgator.net
FileFactory.com
Download 2
KatFile.com
Turbobit.net
Rapidgator.net
FileFactory.com

Tracklist:

1. A Romance of Thorns 20:07  
2. Dreams (Along the Trail) 05:13  
3. Drowned Divine 14:11  
4. Blood for Lavinia 04:40  
5. Sur les sentiers de lune 05:44  
6. Que les lueurs se dispersent 11:15   

EAC-Log, CUE-Sheed & NFO:

Click to open spoiler
CUE Corrector v. 8.3.6 / b. 965 (Feb. 15, 2020)
————————————————————————————————————————————————————————————————————————
Angellore / Rien Ne Devait Mourir

Folder: Angellore – Rien Ne Devait Mourir 2020
Audio files:
Angellore – Rien Ne Devait Mourir – 01 A Romance Of Thorns.flac [20:07.293; FLAC • 943 kbps • 16 bit \ 44100 Hz • stereo; 135,73 MB (142 319 572 B)]
Angellore – Rien Ne Devait Mourir – 02 Dreams (Along The Trail).flac [05:13.320; FLAC • 905 kbps • 16 bit \ 44100 Hz • stereo; 33,83 MB (35 475 854 B)]
Angellore – Rien Ne Devait Mourir – 03 Drowned Divine.flac [14:11.293; FLAC • 924 kbps • 16 bit \ 44100 Hz • stereo; 93,82 MB (98 372 633 B)]
Angellore – Rien Ne Devait Mourir – 04 Blood For Lavinia.flac [04:40.267; FLAC • 1002 kbps • 16 bit \ 44100 Hz • stereo; 33,50 MB (35 122 625 B)]
Angellore – Rien Ne Devait Mourir – 05 Sur Les Sentiers De Lune.flac [05:44.747; FLAC • 767 kbps • 16 bit \ 44100 Hz • stereo; 31,52 MB (33 052 607 B)]
Angellore – Rien Ne Devait Mourir – 06 Que Les Lueurs Se Dispersent.flac [11:15.080; FLAC • 876 kbps • 16 bit \ 44100 Hz • stereo; 70,50 MB (73 928 649 B)]
Angellore – Rien Ne Devait Mourir – 07 Bonus Track – Rassembler Les Cendres.flac [07:56.587; FLAC • 723 kbps • 16 bit \ 44100 Hz • stereo; 41,08 MB (43 077 606 B)]
Angellore – Rien Ne Devait Mourir – 08 Bonus Track – Twilight´s Embrace (feat. Thomas Helm).flac [09:28.240; FLAC • 920 kbps • 16 bit \ 44100 Hz • stereo; 62,38 MB (65 411 574 B)]

Accuracy: -m0

File Angellore – Rien Ne Devait Mourir – 01 A Romance Of Thorns – 100% CDDA [20:07:22]
File Angellore – Rien Ne Devait Mourir – 02 Dreams (Along The Trail) – 100% CDDA [05:13:24]
File Angellore – Rien Ne Devait Mourir – 03 Drowned Divine – 100% CDDA [14:11:22]
File Angellore – Rien Ne Devait Mourir – 04 Blood For Lavinia – 100% CDDA [04:40:20]
File Angellore – Rien Ne Devait Mourir – 05 Sur Les Sentiers De Lune – 99% CDDA [05:44:56]
File Angellore – Rien Ne Devait Mourir – 06 Que Les Lueurs Se Dispersent – 100% CDDA [11:15:06]
File Angellore – Rien Ne Devait Mourir – 07 Bonus Track – Rassembler Les Cendres – 100% CDDA [07:56:44]
File Angellore – Rien Ne Devait Mourir – 08 Bonus Track – Twilight´s Embrace (feat. Thomas Helm) – 99% CDDA [09:28:18]
————— Summary: —————
These tracks looks like CDDA with probability 100%.
————————————————————————————————————————————————————————————————————————

ANALYZER:
auCDtect: CD records authenticity detector, version 0.8.2
Copyright (c) 2004 Oleg Berngardt. All rights reserved.
Copyright (c) 2004 Alexander Djourik. All rights reserved.

Time elapsed: 10 m 08 s
Log created at February 15, 2020 15:29:40

=== 80DE9F12A5439B39F1CCF7F89BEB8669E623A0C2E6B70CC488E0740280225F15 ===
foobar2000 1.3.14 / Dynamic Range Meter 1.1.1
log date: 2020-02-15 15:17:26

——————————————————————————–
Analyzed: Angellore / Rien Ne Devait Mourir
——————————————————————————–

DR Peak RMS Duration Track
——————————————————————————–
DR9 -0.22 dB -10.77 dB 20:07 01-A Romance Of Thorns
DR9 -0.22 dB -11.16 dB 5:13 02-Dreams (Along The Trail)
DR9 -0.22 dB -11.01 dB 14:11 03-Drowned Divine
DR9 -0.22 dB -10.87 dB 4:40 04-Blood For Lavinia
DR10 -0.22 dB -14.38 dB 5:45 05-Sur Les Sentiers De Lune
DR9 -0.22 dB -11.74 dB 11:15 06-Que Les Lueurs Se Dispersent
DR11 -0.60 dB -16.94 dB 7:57 07-Bonus Track – Rassembler Les Cendres
DR9 -0.22 dB -11.01 dB 9:28 08-Bonus Track – Twilight´s Embrace (feat. Thomas Helm)
——————————————————————————–

Number of tracks: 8
Official DR value: DR9

Samplerate: 44100 Hz
Channels: 2
Bits per sample: 16
Bitrate: 920 kbps
Codec: FLAC
================================================================================


Leave a Reply

Your email address will not be published. Required fields are marked *

This site uses Akismet to reduce spam. Learn how your comment data is processed.