Angelic Upstarts – Who Killed Liddle?




Artist: Angelic Upstarts
Year: 1998
Genre: Punk
Notes: Discogs
Add. Notes:
Cover incl.: Yes
Encoder: FLAC
Bitrate: ~900 kBit/s (44.1 kHz/16 Bit/s)
Log & Cue incl.: Yes
Size: 627,8 MB
Password: “slam” (without ” “)


All Downloads/Hosters are compatible

Download 1
KatFile.com
Turbobit.net
FileFactory.com
Rapidgator.net
Download 2
KatFile.com
Turbobit.net
FileFactory.com
Rapidgator.net

Tracklist:

1-1 - The Murder Of Liddle Towers - 4:40
1-2 - Police Oppression - 3:32
1-3 - I Stand Accused - 3:16
1-4 - Empty Street - 3:24
1-5 - Power Of The Press - 2:31
1-6 - Stab In The Back - 2:10
1-7 - Everyday - 4:15
1-8 - I Wanna Knighthood - 2:37
1-9 - Heart Attack In Paris - 3:06
1-10 - I Don't Wanna Fight The Soviet - 3:03
1-11 - I Won't Pay For Liberty - 2:36
1-12 - Never Return To Hell - 2:57
1-13 - Blood On The Terraces - 3:23
1-14 - Victory For Poland - 2:14
1-15 - Give Us A Clue - 3:07
2-1 - Never 'Ad Nothing [Live] - 2:51
2-2 - Leave Me Alone [Live] - 2:40
2-3 - Teenage Warning [Live] - 3:00
2-4 - Last Night Another Soldier [Live] - 2:43
2-5 - Guns For The Afghan Rebels [Live] - 2:13
2-6 - Soldier - 5:14
2-7 - Solidarity - 5:51
2-8 - Spirit Of St George - 3:17
2-9 - No Man's Land (Green Fields Of France) - 4:58
2-10 - Brighton Bomb - 3:47
2-11 - Shotgun Solution (Live) - 2:55
2-12 - Kids In The Streets (Live) - 2:19
2-13 - Two Million Voices (Live) - 2:34
2-14 - I'm An Upstart (Live) - 2:54
2-15 - I Understand (Live) - 4:15

EAC-Log, CUE-Sheed & NFO:

Click to open spoiler
Exact Audio Copy V1.3 from 2. September 2016

EAC extraction logfile from 2. June 2017, 6:42

Angelic Upstarts / Who Killed Liddle?

Used drive : ATAPI iHAS124 F Adapter: 1 ID: 1

Read mode : Secure
Utilize accurate stream : Yes
Defeat audio cache : Yes
Make use of C2 pointers : No

Read offset correction : 6
Overread into Lead-In and Lead-Out : No
Fill up missing offset samples with silence : Yes
Delete leading and trailing silent blocks : No
Null samples used in CRC calculations : Yes
Used interface : Native Win32 interface for Win NT & 2000
Gap handling : Appended to previous track

Used output format : User Defined Encoder
Selected bitrate : 1024 kBit/s
Quality : High
Add ID3 tag : No
Command line compressor : C:\cmd.exe
Additional command line options : /c “”C:\F\CUETools.FLACCL.cmd.exe” -8 –verify %source% -o %dest% & “C:\M\metaflac.exe” –set-tag=”ARTIST=%artist%” –set-tag=”TITLE=%title%” –set-tag=”ALBUM=%albumtitle%” –set-tag=”DATE=%year%” –set-tag=”TRACKNUMBER=%tracknr%” –set-tag=”GENRE=%genre%” –set-tag=”COMPOSER=%composer%” –set-tag=”ALBUMARTIST=%albumartist%” %dest%”

TOC of the extracted CD

Track | Start | Length | Start sector | End sector
———————————————————
1 | 0:00.00 | 4:40.50 | 0 | 21049
2 | 4:40.50 | 3:32.02 | 21050 | 36951
3 | 8:12.52 | 3:16.38 | 36952 | 51689
4 | 11:29.15 | 3:24.12 | 51690 | 67001
5 | 14:53.27 | 2:31.73 | 67002 | 78399
6 | 17:25.25 | 2:10.32 | 78400 | 88181
7 | 19:35.57 | 4:15.40 | 88182 | 107346
8 | 23:51.22 | 2:37.20 | 107347 | 119141
9 | 26:28.42 | 3:06.00 | 119142 | 133091
10 | 29:34.42 | 3:03.25 | 133092 | 146841
11 | 32:37.67 | 2:36.10 | 146842 | 158551
12 | 35:14.02 | 2:57.03 | 158552 | 171829
13 | 38:11.05 | 3:23.15 | 171830 | 187069
14 | 41:34.20 | 2:14.05 | 187070 | 197124
15 | 43:48.25 | 3:06.55 | 197125 | 211129

Track 1

Filename E:\EAC Rips\2017-06 Juni\Angelic Upstarts – Who Killed Liddle_ (1998) [FLAC] {SMD CD 205}\Disc 1\01 – The Murder of Liddle Towers.wav

Pre-gap length 0:00:02.00

Peak level 97.7 %
Extraction speed 5.2 X
Track quality 100.0 %
Test CRC 1A4DC941
Copy CRC 1A4DC941
Track not present in AccurateRip database
Copy OK

Track 2

Filename E:\EAC Rips\2017-06 Juni\Angelic Upstarts – Who Killed Liddle_ (1998) [FLAC] {SMD CD 205}\Disc 1\02 – Police Oppression.wav

Pre-gap length 0:00:01.48

Peak level 97.7 %
Extraction speed 5.5 X
Track quality 100.0 %
Test CRC 0A7A6F76
Copy CRC 0A7A6F76
Track not present in AccurateRip database
Copy OK

Track 3

Filename E:\EAC Rips\2017-06 Juni\Angelic Upstarts – Who Killed Liddle_ (1998) [FLAC] {SMD CD 205}\Disc 1\03 – I Stand Accused.wav

Pre-gap length 0:00:01.47

Peak level 97.7 %
Extraction speed 5.1 X
Track quality 99.9 %
Test CRC E1825F1B
Copy CRC E1825F1B
Track not present in AccurateRip database
Copy OK

Track 4

Filename E:\EAC Rips\2017-06 Juni\Angelic Upstarts – Who Killed Liddle_ (1998) [FLAC] {SMD CD 205}\Disc 1\04 – Empty Street.wav

Pre-gap length 0:00:01.48

Peak level 97.7 %
Extraction speed 5.5 X
Track quality 99.9 %
Test CRC 10A7E5A2
Copy CRC 10A7E5A2
Track not present in AccurateRip database
Copy OK

Track 5

Filename E:\EAC Rips\2017-06 Juni\Angelic Upstarts – Who Killed Liddle_ (1998) [FLAC] {SMD CD 205}\Disc 1\05 – Power of the Press.wav

Pre-gap length 0:00:01.47

Peak level 97.7 %
Extraction speed 6.3 X
Track quality 100.0 %
Test CRC DC874509
Copy CRC DC874509
Track not present in AccurateRip database
Copy OK

Track 6

Filename E:\EAC Rips\2017-06 Juni\Angelic Upstarts – Who Killed Liddle_ (1998) [FLAC] {SMD CD 205}\Disc 1\06 – Stab in the Back.wav

Pre-gap length 0:00:01.48

Peak level 97.7 %
Extraction speed 6.3 X
Track quality 100.0 %
Test CRC 603B6F11
Copy CRC 603B6F11
Track not present in AccurateRip database
Copy OK

Track 7

Filename E:\EAC Rips\2017-06 Juni\Angelic Upstarts – Who Killed Liddle_ (1998) [FLAC] {SMD CD 205}\Disc 1\07 – Everyday.wav

Pre-gap length 0:00:01.47

Peak level 97.7 %
Extraction speed 7.3 X
Track quality 100.0 %
Test CRC EACD1163
Copy CRC EACD1163
Track not present in AccurateRip database
Copy OK

Track 8

Filename E:\EAC Rips\2017-06 Juni\Angelic Upstarts – Who Killed Liddle_ (1998) [FLAC] {SMD CD 205}\Disc 1\08 – I Wanna Knighthood.wav

Pre-gap length 0:00:01.47

Peak level 97.7 %
Extraction speed 7.1 X
Track quality 100.0 %
Test CRC B11AE354
Copy CRC B11AE354
Track not present in AccurateRip database
Copy OK

Track 9

Filename E:\EAC Rips\2017-06 Juni\Angelic Upstarts – Who Killed Liddle_ (1998) [FLAC] {SMD CD 205}\Disc 1\09 – Heart Attack in Paris.wav

Pre-gap length 0:00:01.47

Peak level 92.2 %
Extraction speed 7.7 X
Track quality 100.0 %
Test CRC 8C69AAA9
Copy CRC 8C69AAA9
Track not present in AccurateRip database
Copy OK

Track 10

Filename E:\EAC Rips\2017-06 Juni\Angelic Upstarts – Who Killed Liddle_ (1998) [FLAC] {SMD CD 205}\Disc 1\10 – I Don´t Wanna Fight the Soviet.wav

Pre-gap length 0:00:01.47

Peak level 97.7 %
Extraction speed 7.9 X
Track quality 100.0 %
Test CRC D3A746E0
Copy CRC D3A746E0
Track not present in AccurateRip database
Copy OK

Track 11

Filename E:\EAC Rips\2017-06 Juni\Angelic Upstarts – Who Killed Liddle_ (1998) [FLAC] {SMD CD 205}\Disc 1\11 – I Won´t Pay for Liberty.wav

Pre-gap length 0:00:01.47

Peak level 97.7 %
Extraction speed 7.8 X
Track quality 100.0 %
Test CRC 3E71308F
Copy CRC 3E71308F
Track not present in AccurateRip database
Copy OK

Track 12

Filename E:\EAC Rips\2017-06 Juni\Angelic Upstarts – Who Killed Liddle_ (1998) [FLAC] {SMD CD 205}\Disc 1\12 – Never Return to Hell.wav

Pre-gap length 0:00:01.47

Peak level 97.7 %
Extraction speed 8.1 X
Track quality 100.0 %
Test CRC 9ED6F846
Copy CRC 9ED6F846
Track not present in AccurateRip database
Copy OK

Track 13

Filename E:\EAC Rips\2017-06 Juni\Angelic Upstarts – Who Killed Liddle_ (1998) [FLAC] {SMD CD 205}\Disc 1\13 – Blood on the Terraces.wav

Pre-gap length 0:00:01.48

Peak level 97.7 %
Extraction speed 7.5 X
Track quality 99.9 %
Test CRC EC01D166
Copy CRC EC01D166
Track not present in AccurateRip database
Copy OK

Track 14

Filename E:\EAC Rips\2017-06 Juni\Angelic Upstarts – Who Killed Liddle_ (1998) [FLAC] {SMD CD 205}\Disc 1\14 – Victory for Poland.wav

Pre-gap length 0:00:01.48

Peak level 92.2 %
Extraction speed 8.0 X
Track quality 100.0 %
Test CRC 529E95A5
Copy CRC 529E95A5
Track not present in AccurateRip database
Copy OK

Track 15

Filename E:\EAC Rips\2017-06 Juni\Angelic Upstarts – Who Killed Liddle_ (1998) [FLAC] {SMD CD 205}\Disc 1\15 – Give Us a Clue.wav

Pre-gap length 0:00:01.48

Peak level 97.7 %
Extraction speed 8.8 X
Track quality 100.0 %
Test CRC 98B0DDCF
Copy CRC 98B0DDCF
Track not present in AccurateRip database
Copy OK

None of the tracks are present in the AccurateRip database

No errors occurred

End of status report

—- CUETools DB Plugin V2.1.6

[CTDB TOCID: 1O1HngmCEJZsIbfl6n5fIeaYTpU-] found
Submit result: 1O1HngmCEJZsIbfl6n5fIeaYTpU- has been confirmed
Track | CTDB Status
1 | (1/1) Accurately ripped
2 | (1/1) Accurately ripped
3 | (1/1) Accurately ripped
4 | (1/1) Accurately ripped
5 | (1/1) Accurately ripped
6 | (1/1) Accurately ripped
7 | (1/1) Accurately ripped
8 | (1/1) Accurately ripped
9 | (1/1) Accurately ripped
10 | (1/1) Accurately ripped
11 | (1/1) Accurately ripped
12 | (1/1) Accurately ripped
13 | (1/1) Accurately ripped
14 | (1/1) Accurately ripped
15 | (1/1) Accurately ripped

==== Log checksum 4D6A7FB9D2CF22C18714BFBEA04598DEF463F34A7BA66166CD604E506A445CFF ====

Exact Audio Copy V1.3 from 2. September 2016

EAC extraction logfile from 2. June 2017, 6:42

Angelic Upstarts / Who Killed Liddle?

Used drive : ATAPI iHAS124 F Adapter: 1 ID: 2

Read mode : Secure
Utilize accurate stream : Yes
Defeat audio cache : Yes
Make use of C2 pointers : No

Read offset correction : 6
Overread into Lead-In and Lead-Out : No
Fill up missing offset samples with silence : Yes
Delete leading and trailing silent blocks : No
Null samples used in CRC calculations : Yes
Used interface : Native Win32 interface for Win NT & 2000
Gap handling : Appended to previous track

Used output format : User Defined Encoder
Selected bitrate : 1024 kBit/s
Quality : High
Add ID3 tag : No
Command line compressor : C:\cmd.exe
Additional command line options : /c “”C:\F\CUETools.FLACCL.cmd.exe” -8 –verify %source% -o %dest% & “C:\M\metaflac.exe” –set-tag=”ARTIST=%artist%” –set-tag=”TITLE=%title%” –set-tag=”ALBUM=%albumtitle%” –set-tag=”DATE=%year%” –set-tag=”TRACKNUMBER=%tracknr%” –set-tag=”GENRE=%genre%” –set-tag=”COMPOSER=%composer%” –set-tag=”ALBUMARTIST=%albumartist%” %dest%”

TOC of the extracted CD

Track | Start | Length | Start sector | End sector
———————————————————
1 | 0:00.00 | 2:51.55 | 0 | 12879
2 | 2:51.55 | 2:40.05 | 12880 | 24884
3 | 5:31.60 | 3:00.60 | 24885 | 38444
4 | 8:32.45 | 2:43.57 | 38445 | 50726
5 | 11:16.27 | 2:13.18 | 50727 | 60719
6 | 13:29.45 | 5:14.05 | 60720 | 84274
7 | 18:43.50 | 5:51.04 | 84275 | 110603
8 | 24:34.54 | 3:17.31 | 110604 | 125409
9 | 27:52.10 | 4:58.45 | 125410 | 147804
10 | 32:50.55 | 3:47.47 | 147805 | 164876
11 | 36:38.27 | 2:55.63 | 164877 | 178064
12 | 39:34.15 | 2:19.60 | 178065 | 188549
13 | 41:54.00 | 2:34.52 | 188550 | 200151
14 | 44:28.52 | 2:54.03 | 200152 | 213204
15 | 47:22.55 | 4:14.57 | 213205 | 232311

Track 1

Filename E:\EAC Rips\2017-06 Juni\Angelic Upstarts – Who Killed Liddle_ (1998) [FLAC] {SMD CD 205}\Disc 2\01 – Never ‘ad Nothing (Live).wav

Pre-gap length 0:00:02.00

Peak level 97.7 %
Extraction speed 4.7 X
Track quality 100.0 %
Test CRC 9DB08ACE
Copy CRC 9DB08ACE
Track not present in AccurateRip database
Copy OK

Track 2

Filename E:\EAC Rips\2017-06 Juni\Angelic Upstarts – Who Killed Liddle_ (1998) [FLAC] {SMD CD 205}\Disc 2\02 – Leave Me Alone (Live).wav

Peak level 97.7 %
Extraction speed 5.0 X
Track quality 100.0 %
Test CRC 928C9C32
Copy CRC 928C9C32
Track not present in AccurateRip database
Copy OK

Track 3

Filename E:\EAC Rips\2017-06 Juni\Angelic Upstarts – Who Killed Liddle_ (1998) [FLAC] {SMD CD 205}\Disc 2\03 – Teenage Warning (Live).wav

Peak level 97.7 %
Extraction speed 5.5 X
Track quality 100.0 %
Test CRC E34F5B41
Copy CRC E34F5B41
Track not present in AccurateRip database
Copy OK

Track 4

Filename E:\EAC Rips\2017-06 Juni\Angelic Upstarts – Who Killed Liddle_ (1998) [FLAC] {SMD CD 205}\Disc 2\04 – Last Night Another Soldier (Live).wav

Peak level 97.7 %
Extraction speed 5.7 X
Track quality 100.0 %
Test CRC 0F9C72F5
Copy CRC 0F9C72F5
Track not present in AccurateRip database
Copy OK

Track 5

Filename E:\EAC Rips\2017-06 Juni\Angelic Upstarts – Who Killed Liddle_ (1998) [FLAC] {SMD CD 205}\Disc 2\05 – Guns For The Afghan Rebels (Live).wav

Peak level 97.7 %
Extraction speed 5.7 X
Track quality 100.0 %
Test CRC 30143A09
Copy CRC 30143A09
Track not present in AccurateRip database
Copy OK

Track 6

Filename E:\EAC Rips\2017-06 Juni\Angelic Upstarts – Who Killed Liddle_ (1998) [FLAC] {SMD CD 205}\Disc 2\06 – Soldier.wav

Pre-gap length 0:00:01.48

Peak level 97.7 %
Extraction speed 6.3 X
Track quality 99.9 %
Test CRC FF5A6355
Copy CRC FF5A6355
Track not present in AccurateRip database
Copy OK

Track 7

Filename E:\EAC Rips\2017-06 Juni\Angelic Upstarts – Who Killed Liddle_ (1998) [FLAC] {SMD CD 205}\Disc 2\07 – Solidarity.wav

Pre-gap length 0:00:01.48

Peak level 97.7 %
Extraction speed 7.6 X
Track quality 100.0 %
Test CRC C32029ED
Copy CRC C32029ED
Track not present in AccurateRip database
Copy OK

Track 8

Filename E:\EAC Rips\2017-06 Juni\Angelic Upstarts – Who Killed Liddle_ (1998) [FLAC] {SMD CD 205}\Disc 2\08 – Spirit Of St. George.wav

Pre-gap length 0:00:01.47

Peak level 87.0 %
Extraction speed 7.5 X
Track quality 100.0 %
Test CRC 3F9841C2
Copy CRC 3F9841C2
Track not present in AccurateRip database
Copy OK

Track 9

Filename E:\EAC Rips\2017-06 Juni\Angelic Upstarts – Who Killed Liddle_ (1998) [FLAC] {SMD CD 205}\Disc 2\09 – No Man’s Land (Green Fields Of France).wav

Pre-gap length 0:00:01.48

Peak level 97.7 %
Extraction speed 8.4 X
Track quality 100.0 %
Test CRC 0EB99B86
Copy CRC 0EB99B86
Track not present in AccurateRip database
Copy OK

Track 10

Filename E:\EAC Rips\2017-06 Juni\Angelic Upstarts – Who Killed Liddle_ (1998) [FLAC] {SMD CD 205}\Disc 2\10 – Brighton Bomb.wav

Pre-gap length 0:00:01.48

Peak level 97.7 %
Extraction speed 8.3 X
Track quality 100.0 %
Test CRC D09E5A90
Copy CRC D09E5A90
Track not present in AccurateRip database
Copy OK

Track 11

Filename E:\EAC Rips\2017-06 Juni\Angelic Upstarts – Who Killed Liddle_ (1998) [FLAC] {SMD CD 205}\Disc 2\11 – Shotgun Solution (Live).wav

Pre-gap length 0:00:01.47

Peak level 97.7 %
Extraction speed 8.2 X
Track quality 100.0 %
Test CRC 9566990A
Copy CRC 9566990A
Track not present in AccurateRip database
Copy OK

Track 12

Filename E:\EAC Rips\2017-06 Juni\Angelic Upstarts – Who Killed Liddle_ (1998) [FLAC] {SMD CD 205}\Disc 2\12 – Kids On The Streets (Live).wav

Peak level 97.7 %
Extraction speed 6.9 X
Track quality 99.9 %
Test CRC FE53B273
Copy CRC FE53B273
Track not present in AccurateRip database
Copy OK

Track 13

Filename E:\EAC Rips\2017-06 Juni\Angelic Upstarts – Who Killed Liddle_ (1998) [FLAC] {SMD CD 205}\Disc 2\13 – Two Million Voices (Live).wav

Peak level 97.7 %
Extraction speed 6.9 X
Track quality 99.9 %
Test CRC 02CF763F
Copy CRC 02CF763F
Track not present in AccurateRip database
Copy OK

Track 14

Filename E:\EAC Rips\2017-06 Juni\Angelic Upstarts – Who Killed Liddle_ (1998) [FLAC] {SMD CD 205}\Disc 2\14 – I’m An Upstart (Live).wav

Peak level 97.7 %
Extraction speed 8.7 X
Track quality 100.0 %
Test CRC DD51CF5E
Copy CRC DD51CF5E
Track not present in AccurateRip database
Copy OK

Track 15

Filename E:\EAC Rips\2017-06 Juni\Angelic Upstarts – Who Killed Liddle_ (1998) [FLAC] {SMD CD 205}\Disc 2\15 – I Understand (Live).wav

Peak level 97.7 %
Extraction speed 9.3 X
Track quality 100.0 %
Test CRC 87ADB457
Copy CRC 87ADB457
Track not present in AccurateRip database
Copy OK

None of the tracks are present in the AccurateRip database

No errors occurred

End of status report

—- CUETools DB Plugin V2.1.6

[CTDB TOCID: AAJskzFaLJ7pHl7ZNdkycMZ1lb8-] found
Submit result: AAJskzFaLJ7pHl7ZNdkycMZ1lb8- has been confirmed
Track | CTDB Status
1 | (2/2) Accurately ripped
2 | (2/2) Accurately ripped
3 | (2/2) Accurately ripped
4 | (2/2) Accurately ripped
5 | (2/2) Accurately ripped
6 | (2/2) Accurately ripped
7 | (2/2) Accurately ripped
8 | (2/2) Accurately ripped
9 | (2/2) Accurately ripped
10 | (1/2) Accurately ripped, or (1/2) differs in 165 samples @03:45:22-03:45:27
11 | (2/2) Accurately ripped
12 | (2/2) Accurately ripped
13 | (2/2) Accurately ripped
14 | (2/2) Accurately ripped
15 | (2/2) Accurately ripped

==== Log checksum DB55AF88EAE44A84B3A36F7F3FA13D91C4DE0D74C0C7F976596BB272AC03354F ====

REM GENRE Punk
REM DATE 1998
REM DISCID E20AFF0F
REM COMMENT “ExactAudioCopy v1.3”
PERFORMER “Angelic Upstarts”
TITLE “Who Killed Liddle?”
REM COMPOSER “”
FILE “01 – The Murder of Liddle Towers.wav” WAVE
TRACK 01 AUDIO
TITLE “The Murder of Liddle Towers”
PERFORMER “Angelic Upstarts”
REM COMPOSER “”
INDEX 01 00:00:00
TRACK 02 AUDIO
TITLE “Police Oppression”
PERFORMER “Angelic Upstarts”
REM COMPOSER “”
INDEX 00 04:39:02
FILE “02 – Police Oppression.wav” WAVE
INDEX 01 00:00:00
TRACK 03 AUDIO
TITLE “I Stand Accused”
PERFORMER “Angelic Upstarts”
REM COMPOSER “”
INDEX 00 03:30:30
FILE “03 – I Stand Accused.wav” WAVE
INDEX 01 00:00:00
TRACK 04 AUDIO
TITLE “Empty Street”
PERFORMER “Angelic Upstarts”
REM COMPOSER “”
INDEX 00 03:14:65
FILE “04 – Empty Street.wav” WAVE
INDEX 01 00:00:00
TRACK 05 AUDIO
TITLE “Power of the Press”
PERFORMER “Angelic Upstarts”
REM COMPOSER “”
INDEX 00 03:22:40
FILE “05 – Power of the Press.wav” WAVE
INDEX 01 00:00:00
TRACK 06 AUDIO
TITLE “Stab in the Back”
PERFORMER “Angelic Upstarts”
REM COMPOSER “”
INDEX 00 02:30:25
FILE “06 – Stab in the Back.wav” WAVE
INDEX 01 00:00:00
TRACK 07 AUDIO
TITLE “Everyday”
PERFORMER “Angelic Upstarts”
REM COMPOSER “”
INDEX 00 02:08:60
FILE “07 – Everyday.wav” WAVE
INDEX 01 00:00:00
TRACK 08 AUDIO
TITLE “I Wanna Knighthood”
PERFORMER “Angelic Upstarts”
REM COMPOSER “”
INDEX 00 04:13:68
FILE “08 – I Wanna Knighthood.wav” WAVE
INDEX 01 00:00:00
TRACK 09 AUDIO
TITLE “Heart Attack in Paris”
PERFORMER “Angelic Upstarts”
REM COMPOSER “”
INDEX 00 02:35:48
FILE “09 – Heart Attack in Paris.wav” WAVE
INDEX 01 00:00:00
TRACK 10 AUDIO
TITLE “I Don´t Wanna Fight the Soviet”
PERFORMER “Angelic Upstarts”
REM COMPOSER “”
INDEX 00 03:04:28
FILE “10 – I Don´t Wanna Fight the Soviet.wav” WAVE
INDEX 01 00:00:00
TRACK 11 AUDIO
TITLE “I Won´t Pay for Liberty”
PERFORMER “Angelic Upstarts”
REM COMPOSER “”
INDEX 00 03:01:53
FILE “11 – I Won´t Pay for Liberty.wav” WAVE
INDEX 01 00:00:00
TRACK 12 AUDIO
TITLE “Never Return to Hell”
PERFORMER “Angelic Upstarts”
REM COMPOSER “”
INDEX 00 02:34:38
FILE “12 – Never Return to Hell.wav” WAVE
INDEX 01 00:00:00
TRACK 13 AUDIO
TITLE “Blood on the Terraces”
PERFORMER “Angelic Upstarts”
REM COMPOSER “”
INDEX 00 02:55:30
FILE “13 – Blood on the Terraces.wav” WAVE
INDEX 01 00:00:00
TRACK 14 AUDIO
TITLE “Victory for Poland”
PERFORMER “Angelic Upstarts”
REM COMPOSER “”
INDEX 00 03:21:42
FILE “14 – Victory for Poland.wav” WAVE
INDEX 01 00:00:00
TRACK 15 AUDIO
TITLE “Give Us a Clue”
PERFORMER “Angelic Upstarts”
REM COMPOSER “”
INDEX 00 02:12:32
FILE “15 – Give Us a Clue.wav” WAVE
INDEX 01 00:00:00

REM GENRE Punk
REM DATE 1998
REM DISCID C40C190F
REM COMMENT “ExactAudioCopy v1.3”
PERFORMER “Angelic Upstarts”
TITLE “Who Killed Liddle?”
REM COMPOSER “”
FILE “01 – Never ‘ad Nothing (Live).wav” WAVE
TRACK 01 AUDIO
TITLE “Never ‘ad Nothing (Live)”
PERFORMER “Angelic Upstarts”
REM COMPOSER “”
INDEX 01 00:00:00
FILE “02 – Leave Me Alone (Live).wav” WAVE
TRACK 02 AUDIO
TITLE “Leave Me Alone (Live)”
PERFORMER “Angelic Upstarts”
REM COMPOSER “”
INDEX 01 00:00:00
FILE “03 – Teenage Warning (Live).wav” WAVE
TRACK 03 AUDIO
TITLE “Teenage Warning (Live)”
PERFORMER “Angelic Upstarts”
REM COMPOSER “”
INDEX 01 00:00:00
FILE “04 – Last Night Another Soldier (Live).wav” WAVE
TRACK 04 AUDIO
TITLE “Last Night Another Soldier (Live)”
PERFORMER “Angelic Upstarts”
REM COMPOSER “”
INDEX 01 00:00:00
FILE “05 – Guns For The Afghan Rebels (Live).wav” WAVE
TRACK 05 AUDIO
TITLE “Guns For The Afghan Rebels (Live)”
PERFORMER “Angelic Upstarts”
REM COMPOSER “”
INDEX 01 00:00:00
TRACK 06 AUDIO
TITLE “Soldier”
PERFORMER “Angelic Upstarts”
REM COMPOSER “”
INDEX 00 02:11:45
FILE “06 – Soldier.wav” WAVE
INDEX 01 00:00:00
TRACK 07 AUDIO
TITLE “Solidarity”
PERFORMER “Angelic Upstarts”
REM COMPOSER “”
INDEX 00 05:12:32
FILE “07 – Solidarity.wav” WAVE
INDEX 01 00:00:00
TRACK 08 AUDIO
TITLE “Spirit Of St. George”
PERFORMER “Angelic Upstarts”
REM COMPOSER “”
INDEX 00 05:49:32
FILE “08 – Spirit Of St. George.wav” WAVE
INDEX 01 00:00:00
TRACK 09 AUDIO
TITLE “No Man’s Land (Green Fields Of France)”
PERFORMER “Angelic Upstarts”
REM COMPOSER “”
INDEX 00 03:15:58
FILE “09 – No Man’s Land (Green Fields Of France).wav” WAVE
INDEX 01 00:00:00
TRACK 10 AUDIO
TITLE “Brighton Bomb”
PERFORMER “Angelic Upstarts”
REM COMPOSER “”
INDEX 00 04:56:72
FILE “10 – Brighton Bomb.wav” WAVE
INDEX 01 00:00:00
TRACK 11 AUDIO
TITLE “Shotgun Solution (Live)”
PERFORMER “Angelic Upstarts”
REM COMPOSER “”
INDEX 00 03:46:00
FILE “11 – Shotgun Solution (Live).wav” WAVE
INDEX 01 00:00:00
FILE “12 – Kids On The Streets (Live).wav” WAVE
TRACK 12 AUDIO
TITLE “Kids On The Streets (Live)”
PERFORMER “Angelic Upstarts”
REM COMPOSER “”
INDEX 01 00:00:00
FILE “13 – Two Million Voices (Live).wav” WAVE
TRACK 13 AUDIO
TITLE “Two Million Voices (Live)”
PERFORMER “Angelic Upstarts”
REM COMPOSER “”
INDEX 01 00:00:00
FILE “14 – I’m An Upstart (Live).wav” WAVE
TRACK 14 AUDIO
TITLE “I’m An Upstart (Live)”
PERFORMER “Angelic Upstarts”
REM COMPOSER “”
INDEX 01 00:00:00
FILE “15 – I Understand (Live).wav” WAVE
TRACK 15 AUDIO
TITLE “I Understand (Live)”
PERFORMER “Angelic Upstarts”
REM COMPOSER “”
INDEX 01 00:00:00


Leave a Reply

Your email address will not be published. Required fields are marked *

This site uses Akismet to reduce spam. Learn how your comment data is processed.