Angelic Upstarts – We Gotta Get Out Of This Place




Artist: Angelic Upstarts
Year: 1980/2003
Genre: Oi
Notes: Discogs
Add. Notes:
Cover incl.: Yes
Encoder: FLAC
Bitrate: ~1000 kBit/s (44.1 kHz/16 Bit/s)
Log & Cue incl.: Yes
Size: 286,61 MB
Password: “slam” (without ” “)


All Downloads/Hosters are compatible

Download 1
Turbobit.net
Rapidgator.net
KatFile.com
UploadRar.com
Download 2
Turbobit.net
Rapidgator.net
KatFile.com
UploadRar.com
Download 3
Turbobit.net
Rapidgator.net
KatFile.com
UploadRar.com

Tracklist:

1. Never' Ad Nothin' 	
2. Police Opression 	
3. Lonely Man Of Spandau 	
4. Their Destiny Is Coming 	
5. Shotgun Solution 	
6. King Coal 	
7. Out Of Control 	
8. Ronnie Is A Rocker 	
9. Listen To The Steps 	
10. Can't Kill A Legend 	
11. Capital City 	
12. We Gotta Get Out Of This Place 	
Bonus Tracks
13. Nowhere Left To Run 	
14. Unsung Heroes II

EAC-Log, CUE-Sheed & NFO:

Click to open spoiler
Exact Audio Copy V0.99 prebeta 4 from 23. January 2008

EAC extraction logfile from 13. June 2008, 19:11

Angelic Upstarts / We Gotta Get Out Of This Place

Used drive : _NEC DVD_RW ND-3550A Adapter: 5 ID: 0

Read mode : Secure
Utilize accurate stream : Yes
Defeat audio cache : Yes
Make use of C2 pointers : No

Read offset correction : 48
Overread into Lead-In and Lead-Out : No
Fill up missing offset samples with silence : Yes
Delete leading and trailing silent blocks : No
Null samples used in CRC calculations : Yes
Used interface : Native Win32 interface for Win NT & 2000

Used output format : Monkey’s Audio Lossless Encoder v3.99 DLL
Sample format : High Lossless Compression

TOC of the extracted CD

Track | Start | Length | Start sector | End sector
———————————————————
1 | 0:00.00 | 2:44.71 | 0 | 12370
2 | 2:44.71 | 3:12.61 | 12371 | 26831
3 | 5:57.57 | 2:48.26 | 26832 | 39457
4 | 8:46.08 | 2:40.00 | 39458 | 51457
5 | 11:26.08 | 2:16.10 | 51458 | 61667
6 | 13:42.18 | 3:35.70 | 61668 | 77862
7 | 17:18.13 | 2:23.05 | 77863 | 88592
8 | 19:41.18 | 2:29.61 | 88593 | 99828
9 | 22:11.04 | 2:34.32 | 99829 | 111410
10 | 24:45.36 | 3:09.00 | 111411 | 125585
11 | 27:54.36 | 3:05.02 | 125586 | 139462
12 | 30:59.38 | 4:01.69 | 139463 | 157606
13 | 35:01.32 | 1:47.33 | 157607 | 165664
14 | 36:48.65 | 2:08.69 | 165665 | 175333

Range status and errors

Selected range

Filename D:\Downloads\Angelic Upstarts – We Gotta Get Out Of This Place\Angelic Upstarts – We Gotta Get Out Of This Place.ape

Peak level 98.8 %
Range quality 100.0 %
Copy CRC 756DDCA2
Copy OK

No errors occurred

AccurateRip summary

Track 1 not present in database
Track 2 not present in database
Track 3 not present in database
Track 4 not present in database
Track 5 not present in database
Track 6 not present in database
Track 7 not present in database
Track 8 not present in database
Track 9 not present in database
Track 10 not present in database
Track 11 not present in database
Track 12 not present in database
Track 13 not present in database
Track 14 not present in database

None of the tracks are present in the AccurateRip database

End of status report

REM GENRE Punk
REM DATE 1980
REM DISCID B209210E
REM COMMENT “ExactAudioCopy v0.99pb4”
PERFORMER “Angelic Upstarts”
TITLE “We Gotta Get Out Of This Place”
FILE “Angelic Upstarts – We Gotta Get Out Of This Place.ape” WAVE
TRACK 01 AUDIO
TITLE “Never ‘Ad Nothin”
PERFORMER “Angelic Upstarts”
INDEX 01 00:00:00
TRACK 02 AUDIO
TITLE “Police Oppression”
PERFORMER “Angelic Upstarts”
INDEX 01 02:44:71
TRACK 03 AUDIO
TITLE “Lonely Man Of Spandau”
PERFORMER “Angelic Upstarts”
INDEX 01 05:57:57
TRACK 04 AUDIO
TITLE “Their Destiny Is Coming”
PERFORMER “Angelic Upstarts”
INDEX 01 08:46:08
TRACK 05 AUDIO
TITLE “Shotgun Solution”
PERFORMER “Angelic Upstarts”
INDEX 01 11:26:08
TRACK 06 AUDIO
TITLE “King Coal”
PERFORMER “Angelic Upstarts”
INDEX 01 13:42:18
TRACK 07 AUDIO
TITLE “Out Of Control”
PERFORMER “Angelic Upstarts”
INDEX 01 17:18:13
TRACK 08 AUDIO
TITLE “Ronnie Is A Rocker”
PERFORMER “Angelic Upstarts”
INDEX 01 19:41:18
TRACK 09 AUDIO
TITLE “Listen To The Steps”
PERFORMER “Angelic Upstarts”
INDEX 01 22:11:04
TRACK 10 AUDIO
TITLE “Can’t Kill A Legend”
PERFORMER “Angelic Upstarts”
INDEX 01 24:45:36
TRACK 11 AUDIO
TITLE “Capital City”
PERFORMER “Angelic Upstarts”
INDEX 01 27:54:36
TRACK 12 AUDIO
TITLE “We Gotta Get Out Of This Place”
PERFORMER “Angelic Upstarts”
INDEX 01 30:59:38
TRACK 13 AUDIO
TITLE “Nowhere Left To Hide (bonus track)”
PERFORMER “Angelic Upstarts”
INDEX 01 35:01:32
TRACK 14 AUDIO
TITLE “Unsung Heroes II (bonus track)”
PERFORMER “Angelic Upstarts”
INDEX 01 36:48:65


Leave a Reply

Your email address will not be published. Required fields are marked *

This site uses Akismet to reduce spam. Learn how your comment data is processed.