Angelic Upstarts – The Punk Singles Collection




Artist: Angelic Upstarts
Year: 2004
Genre: Punk
Notes: Discogs
Add. Notes:
Cover incl.: Yes
Encoder: FLAC
Bitrate: ~900 kBit/s (44.1 kHz/16 Bit/s)
Log & Cue incl.: Yes
Size: 374,59 MB
Password: “slam” (without ” “)


All Downloads/Hosters are compatible

Download 1
Turbobit.net
Rapidgator.net
UploadEver.com
KatFile.com
UsersDrive.com
Download 2
Turbobit.net
Rapidgator.net
UploadEver.com
KatFile.com
UsersDrive.com
Download 3
Turbobit.net
Rapidgator.net
UploadEver.com
KatFile.com
UsersDrive.com

Tracklist:

1 - The Murder Of Liddle Towers - 4:40
2 - I'm An Upstart - 2:21
3 - Teenage Warning - 3:02
4 - Never 'Ad Nothing - 2:45
5 - Out Of Control - 2:23
6 - We Gotta Get Out Of This Place - 4:02
7 - Last Night Another Soldier - 2:45
8 - England - 3:23
9 - Kids On The Street - 2:21
10 - I Understand - 2:52
11 - Different Strokes - 2:31
12 - Never Say Die - 3:11
13 - Woman In Disguise - 3:08
14 - Solidarity - 5:03
15 - Not Just A Name - 2:49
16 - Machine Gun Kelly - 2:36
17 - Brighton Bomb - 3:46

EAC-Log, CUE-Sheed & NFO:

Click to open spoiler
Exact Audio Copy V0.99 prebeta 4 from 23. January 2008

Отчёт EAC об извлечении, выполненном 13. июля 2009, 21:50

Angelic Upstarts / The Punk Singles Collection

Дисковод: PIONEER DVD-RW DVR-112D Adapter: 3 ID: 0

Режим чтения : Достоверность
Использование точного потока : Да
Отключение кэша аудио : Да
Использование указателей C2 : Нет

Коррекция смещения при чтении : 48
Способность читать области Lead-in и Lead-out : Нет
Заполнение пропущенных сэмплов тишиной : Да
Удаление блоков с тишиной в начале и конце : Нет
При вычислениях CRC использовались нулевые сэмплы : Да
Интерфейс : Встроенный Win32-интерфейс для Win NT/2000

Выходной формат : Внутренние WAV-операции
Формат сэмплов : 44.100 Гц; 16 бит; стерео

TOC извлечённого CD

Трек | Старт | Длительность | Начальный сектор | Конечный сектор
———————————————————————
1 | 0:00.00 | 4:40.07 | 0 | 21006
2 | 4:40.07 | 2:21.09 | 21007 | 31590
3 | 7:01.16 | 3:02.72 | 31591 | 45312
4 | 10:04.13 | 2:45.25 | 45313 | 57712
5 | 12:49.38 | 2:23.59 | 57713 | 68496
6 | 15:13.22 | 4:02.01 | 68497 | 86647
7 | 19:15.23 | 2:45.33 | 86648 | 99055
8 | 22:00.56 | 3:23.08 | 99056 | 114288
9 | 25:23.64 | 2:21.12 | 114289 | 124875
10 | 27:45.01 | 2:52.14 | 124876 | 137789
11 | 30:37.15 | 2:31.54 | 137790 | 149168
12 | 33:08.69 | 3:11.71 | 149169 | 163564
13 | 36:20.65 | 3:08.22 | 163565 | 177686
14 | 39:29.12 | 5:03.71 | 177687 | 200482
15 | 44:33.08 | 2:49.43 | 200483 | 213200
16 | 47:22.51 | 2:36.47 | 213201 | 224947
17 | 49:59.23 | 3:46.01 | 224948 | 241898

Характеристики диапазона извлечения и сообщения об ошибках

Выбранный диапазон

Имя файла F:\Upload\Angelic Upstarts – The Punk Singles Collection [2004]\Angelic Upstarts – The Punk Singles Collection.wav

Пиковый уровень 100.0 %
Качество диапазона 99.9 %
CRC копии C9C9EB8F
Копирование… OK

Ошибок не произошло

Конец отчёта

REM DATE 2004
REM DISCID E40C9911
REM COMMENT “ExactAudioCopy v0.99pb4”
PERFORMER “Angelic Upstarts”
TITLE “The Punk Singles Collection”
FILE “Angelic Upstarts – The Punk Singles Collection.ape” WAVE
TRACK 01 AUDIO
TITLE “The Murder of Liddle Towers”
PERFORMER “Angelic Upstarts”
INDEX 01 00:00:00
TRACK 02 AUDIO
TITLE “I’m An Upstart”
PERFORMER “Angelic Upstarts”
INDEX 01 04:40:07
TRACK 03 AUDIO
TITLE “Teenage Warning”
PERFORMER “Angelic Upstarts”
INDEX 01 07:01:16
TRACK 04 AUDIO
TITLE “Never ‘Ad Nothing”
PERFORMER “Angelic Upstarts”
INDEX 01 10:04:13
TRACK 05 AUDIO
TITLE “Out Of Control”
PERFORMER “Angelic Upstarts”
INDEX 01 12:49:38
TRACK 06 AUDIO
TITLE “We Gotta Get Out Of This Place”
PERFORMER “Angelic Upstarts”
INDEX 01 15:13:22
TRACK 07 AUDIO
TITLE “Last Night Another Soldier”
PERFORMER “Angelic Upstarts”
INDEX 01 19:15:23
TRACK 08 AUDIO
TITLE “England”
PERFORMER “Angelic Upstarts”
INDEX 01 22:00:56
TRACK 09 AUDIO
TITLE “Kids On The Street”
PERFORMER “Angelic Upstarts”
INDEX 01 25:23:64
TRACK 10 AUDIO
TITLE “I Understand”
PERFORMER “Angelic Upstarts”
INDEX 01 27:45:01
TRACK 11 AUDIO
TITLE “Different Strokes”
PERFORMER “Angelic Upstarts”
INDEX 01 30:37:15
TRACK 12 AUDIO
TITLE “Never Say Die”
PERFORMER “Angelic Upstarts”
INDEX 01 33:08:69
TRACK 13 AUDIO
TITLE “Woman In Disguise”
PERFORMER “Angelic Upstarts”
INDEX 01 36:20:65
TRACK 14 AUDIO
TITLE “Solidarity”
PERFORMER “Angelic Upstarts”
INDEX 01 39:29:12
TRACK 15 AUDIO
TITLE “Not Just A Name”
PERFORMER “Angelic Upstarts”
INDEX 01 44:33:08
TRACK 16 AUDIO
TITLE “Machine Gun Kelly”
PERFORMER “Angelic Upstarts”
INDEX 01 47:22:51
TRACK 17 AUDIO
TITLE “Brighton Bomb”
PERFORMER “Angelic Upstarts”
INDEX 01 49:59:23

Leave a Reply

Your email address will not be published. Required fields are marked *

This site uses Akismet to reduce spam. Learn how your comment data is processed.