Angelic Upstarts – Power Of The Press




Artist: Angelic Upstarts
Year: 1986/1994
Genre: Oi
Notes: Discogs
Add. Notes:
Cover incl.: Yes
Encoder: FLAC
Bitrate: ~900 kBit/s (44.1 kHz/16 Bit/s)
Log & Cue incl.: Yes
Size: 251,83 MB
Password: “slam” (without ” “)


All Downloads/Hosters are compatible

Download 1
Turbobit.net
Rapidgator.net
UploadEver.com
KatFile.com
UsersDrive.com
Download 2
Turbobit.net
Rapidgator.net
UploadEver.com
KatFile.com
UsersDrive.com
Download 3
Turbobit.net
Rapidgator.net
UploadEver.com
KatFile.com
UsersDrive.com

Tracklist:

1. I Stand Accused 
2. Nottingham Slag 
3. Joe Where Are You Now? 
4. Soldier 
5. Empty Street 
6. Brighton Bomb 
7. Power Of The Press 
8. Stab In The Back 
9. Here I Come 
10. Thin Red Line 
11. I'd Kill Her For Sixpence 
12. Greenfields Of France

EAC-Log, CUE-Sheed & NFO:

Click to open spoiler
Exact Audio Copy V1.0 beta 3 from 29. August 2011

EAC extraction logfile from 31. August 2014, 10:22

Angelic Upstarts / Power Of The Press

Used drive : ATAPI iHAS124 B Adapter: 1 ID: 1

Read mode : Secure
Utilize accurate stream : Yes
Defeat audio cache : Yes
Make use of C2 pointers : No

Read offset correction : 6
Overread into Lead-In and Lead-Out : No
Fill up missing offset samples with silence : Yes
Delete leading and trailing silent blocks : No
Null samples used in CRC calculations : Yes
Used interface : Installed external ASPI interface

Used output format : User Defined Encoder
Selected bitrate : 1024 kBit/s
Quality : High
Add ID3 tag : No
Command line compressor : C:\Program Files\FLAC\flac.exe
Additional command line options : -V -8 -T “Date=%year%” -T “Genre=%genre%” %source%

TOC of the extracted CD

Track | Start | Length | Start sector | End sector
———————————————————
1 | 0:00.00 | 3:20.66 | 0 | 15065
2 | 3:20.66 | 3:02.47 | 15066 | 28762
3 | 6:23.38 | 2:41.34 | 28763 | 40871
4 | 9:04.72 | 5:16.16 | 40872 | 64587
5 | 14:21.13 | 3:24.63 | 64588 | 79950
6 | 17:46.01 | 3:48.54 | 79951 | 97104
7 | 21:34.55 | 2:33.69 | 97105 | 108648
8 | 24:08.49 | 2:12.00 | 108649 | 118548
9 | 26:20.49 | 3:44.69 | 118549 | 135417
10 | 30:05.43 | 2:13.60 | 135418 | 145452
11 | 32:19.28 | 3:03.66 | 145453 | 159243
12 | 35:23.19 | 4:57.07 | 159244 | 181525

Range status and errors

Selected range

Filename D:\Angelic Upstarts – Power Of The Press (1986)\Angelic Upstarts – Power Of The Press.wav

Peak level 100.0 %
Extraction speed 8.6 X
Range quality 100.0 %
Test CRC 8E46AD0C
Copy CRC 8E46AD0C
Copy OK

No errors occurred

AccurateRip summary

Track 1 not present in database
Track 2 not present in database
Track 3 not present in database
Track 4 not present in database
Track 5 not present in database
Track 6 not present in database
Track 7 not present in database
Track 8 not present in database
Track 9 not present in database
Track 10 not present in database
Track 11 not present in database
Track 12 not present in database

None of the tracks are present in the AccurateRip database

End of status report

==== Log checksum DD1A91870EA96E4449033E79263C9B753B221BE73DF10EF6E3E60D74A37A7314 ====

REM GENRE “Punk Rock”
REM DATE 1986
REM DISCID 9A09740C
REM COMMENT “ExactAudioCopy v1.0b3”
PERFORMER “Angelic Upstarts”
TITLE “Power Of The Press”
FILE “Angelic Upstarts – Power Of The Press.flac” WAVE
TRACK 01 AUDIO
TITLE “I Stand Accused”
PERFORMER “Angelic Upstarts”
FLAGS DCP
INDEX 01 00:00:00
TRACK 02 AUDIO
TITLE “Nottingham Slag”
PERFORMER “Angelic Upstarts”
FLAGS DCP
INDEX 01 03:20:66
TRACK 03 AUDIO
TITLE “Joe Where Are You Now”
PERFORMER “Angelic Upstarts”
FLAGS DCP
INDEX 01 06:23:38
TRACK 04 AUDIO
TITLE “Soldier”
PERFORMER “Angelic Upstarts”
FLAGS DCP
INDEX 01 09:04:72
TRACK 05 AUDIO
TITLE “Empty Street”
PERFORMER “Angelic Upstarts”
FLAGS DCP
INDEX 01 14:21:13
TRACK 06 AUDIO
TITLE “Brighton Bomb”
PERFORMER “Angelic Upstarts”
FLAGS DCP
INDEX 01 17:46:01
TRACK 07 AUDIO
TITLE “Power Of The Press”
PERFORMER “Angelic Upstarts”
FLAGS DCP
INDEX 01 21:34:55
TRACK 08 AUDIO
TITLE “Stab In The Back”
PERFORMER “Angelic Upstarts”
FLAGS DCP
INDEX 01 24:08:49
TRACK 09 AUDIO
TITLE “Here I Come”
PERFORMER “Angelic Upstarts”
FLAGS DCP
INDEX 01 26:20:49
TRACK 10 AUDIO
TITLE “Thin Red Line”
PERFORMER “Angelic Upstarts”
FLAGS DCP
INDEX 01 30:05:43
TRACK 11 AUDIO
TITLE “I’d Kill Her For Sixpence”
PERFORMER “Angelic Upstarts”
FLAGS DCP
INDEX 01 32:19:28
TRACK 12 AUDIO
TITLE “Greenfields Of France”
PERFORMER “Angelic Upstarts”
FLAGS DCP
INDEX 01 35:23:19


Leave a Reply

Your email address will not be published. Required fields are marked *

This site uses Akismet to reduce spam. Learn how your comment data is processed.