Angelic Upstarts – Last Tango In Moscow




Artist: Angelic Upstarts
Year: 1984/1998
Genre: Punk
Notes: Discogs
Add. Notes:
Cover incl.: Yes
Encoder: FLAC
Bitrate: ~900 kBit/s (44.1 kHz/16 Bit/s)
Log & Cue incl.: Yes
Size: 402,93 MB
Password: “slam” (without ” “)


All Downloads/Hosters are compatible

Download 1
Turbobit.net
Rapidgator.net
KatFile.com
UploadRar.com
Download 2
Turbobit.net
Rapidgator.net
KatFile.com
UploadRar.com
Download 3
Turbobit.net
Rapidgator.net
KatFile.com
UploadRar.com

Tracklist:

1. One More Day 	
2. Machine Gun Kelly 	
3. Progress 	
4. Blackleg Miner 	
5. Who's Got The Money 	
6. Last Tango In Moscow 	
7. I Think It Should Be Free 	
8. Never Return 	
9. Rude Boy 	
10. No News 	
11. Jarrow Woman 	
12. Nowhere To Run 	
Bonus Tracks
13. Paint It In Red 	
14. There's A Drink In It 	
15. Listen To The Silence 	
16. She Don't Cry Anymore 	
17. I Won't Pay For Liberty 	
18. Never Return To Hell 	
19. When Will They Learn 	
20. No Nukes

EAC-Log, CUE-Sheed & NFO:

Click to open spoiler
Exact Audio Copy V1.0 beta 3 from 29. August 2011

EAC extraction logfile from 26. February 2015, 9:55

Angelic Upstarts / Last Tango In Moscow

Used drive : ATAPI iHAS124 B Adapter: 1 ID: 1

Read mode : Secure
Utilize accurate stream : Yes
Defeat audio cache : Yes
Make use of C2 pointers : No

Read offset correction : 6
Overread into Lead-In and Lead-Out : No
Fill up missing offset samples with silence : Yes
Delete leading and trailing silent blocks : No
Null samples used in CRC calculations : Yes
Used interface : Installed external ASPI interface

Used output format : User Defined Encoder
Selected bitrate : 1024 kBit/s
Quality : High
Add ID3 tag : No
Command line compressor : C:\Program Files\FLAC\flac.exe
Additional command line options : -V -8 -T “Date=%year%” -T “Genre=%genre%” %source%

TOC of the extracted CD

Track | Start | Length | Start sector | End sector
———————————————————
1 | 0:00.00 | 3:36.42 | 0 | 16241
2 | 3:36.42 | 2:35.57 | 16242 | 27923
3 | 6:12.24 | 4:15.61 | 27924 | 47109
4 | 10:28.10 | 1:20.33 | 47110 | 53142
5 | 11:48.43 | 2:58.69 | 53143 | 66561
6 | 14:47.37 | 3:12.31 | 66562 | 80992
7 | 17:59.68 | 3:28.72 | 80993 | 96664
8 | 21:28.65 | 2:36.54 | 96665 | 108418
9 | 24:05.44 | 3:02.46 | 108419 | 122114
10 | 27:08.15 | 2:57.60 | 122115 | 135449
11 | 30:06.00 | 3:17.09 | 135450 | 150233
12 | 33:23.09 | 3:32.63 | 150234 | 166196
13 | 36:55.72 | 3:47.16 | 166197 | 183237
14 | 40:43.13 | 2:56.47 | 183238 | 196484
15 | 43:39.60 | 4:22.36 | 196485 | 216170
16 | 48:02.21 | 2:47.52 | 216171 | 228747
17 | 50:49.73 | 2:34.24 | 228748 | 240321
18 | 53:24.22 | 2:56.60 | 240322 | 253581
19 | 56:21.07 | 2:57.14 | 253582 | 266870
20 | 59:18.21 | 3:23.24 | 266871 | 282119

Range status and errors

Selected range

Filename D:\Angelic Upstarts – Last Tango In Moscow (1984)\Angelic Upstarts – Last Tango In Moscow.wav

Peak level 99.6 %
Extraction speed 9.6 X
Range quality 100.0 %
Test CRC B03F3DC3
Copy CRC B03F3DC3
Copy OK

No errors occurred

AccurateRip summary

Track 1 not present in database
Track 2 not present in database
Track 3 not present in database
Track 4 not present in database
Track 5 not present in database
Track 6 not present in database
Track 7 not present in database
Track 8 not present in database
Track 9 not present in database
Track 10 not present in database
Track 11 not present in database
Track 12 not present in database
Track 13 not present in database
Track 14 not present in database
Track 15 not present in database
Track 16 not present in database
Track 17 not present in database
Track 18 not present in database
Track 19 not present in database
Track 20 not present in database

None of the tracks are present in the AccurateRip database

End of status report

==== Log checksum E3941D76A836A09743B4119D39A7E225C285888878E95DCAF4ABD179F2AA41E1 ====

REM GENRE “Punk Rock”
REM DATE 1984
REM DISCID FC0EB114
REM COMMENT “ExactAudioCopy v1.0b3”
PERFORMER “Angelic Upstarts ”
TITLE “Last Tango In Moscow”
FILE “Angelic Upstarts – Last Tango In Moscow.flac” WAVE
TRACK 01 AUDIO
TITLE “One More Day”
PERFORMER “Angelic Upstarts ”
FLAGS DCP
INDEX 01 00:00:00
TRACK 02 AUDIO
TITLE “Machine Gun Kelly”
PERFORMER “Angelic Upstarts ”
FLAGS DCP
INDEX 01 03:36:42
TRACK 03 AUDIO
TITLE “Progress”
PERFORMER “Angelic Upstarts ”
FLAGS DCP
INDEX 01 06:12:24
TRACK 04 AUDIO
TITLE “Blackleg Miner”
PERFORMER “Angelic Upstarts ”
FLAGS DCP
INDEX 01 10:28:10
TRACK 05 AUDIO
TITLE “Who’s Got The Money”
PERFORMER “Angelic Upstarts ”
FLAGS DCP
INDEX 01 11:48:43
TRACK 06 AUDIO
TITLE “Last Tango In Moscow”
PERFORMER “Angelic Upstarts ”
FLAGS DCP
INDEX 01 14:47:37
TRACK 07 AUDIO
TITLE “I Think It Should Be Free”
PERFORMER “Angelic Upstarts ”
FLAGS DCP
INDEX 01 17:59:68
TRACK 08 AUDIO
TITLE “Never Return”
PERFORMER “Angelic Upstarts ”
FLAGS DCP
INDEX 01 21:28:65
TRACK 09 AUDIO
TITLE “Rude Boy”
PERFORMER “Angelic Upstarts ”
FLAGS DCP
INDEX 01 24:05:44
TRACK 10 AUDIO
TITLE “No News”
PERFORMER “Angelic Upstarts ”
FLAGS DCP
INDEX 01 27:08:15
TRACK 11 AUDIO
TITLE “Jarrow Woman”
PERFORMER “Angelic Upstarts ”
FLAGS DCP
INDEX 01 30:06:00
TRACK 12 AUDIO
TITLE “Nowhere To Run”
PERFORMER “Angelic Upstarts ”
FLAGS DCP
INDEX 01 33:23:09
TRACK 13 AUDIO
TITLE “Painted In Red”
PERFORMER “Angelic Upstarts ”
FLAGS DCP
INDEX 01 36:55:72
TRACK 14 AUDIO
TITLE “There’s A Drink In It”
PERFORMER “Angelic Upstarts ”
FLAGS DCP
INDEX 01 40:43:13
TRACK 15 AUDIO
TITLE “Listen To The Silence”
PERFORMER “Angelic Upstarts ”
FLAGS DCP
INDEX 01 43:39:60
TRACK 16 AUDIO
TITLE “She Don’t Cry Anymore”
PERFORMER “Angelic Upstarts ”
FLAGS DCP
INDEX 01 48:02:21
TRACK 17 AUDIO
TITLE “I Won’t Pay For Liberty”
PERFORMER “Angelic Upstarts ”
FLAGS DCP
INDEX 01 50:49:73
TRACK 18 AUDIO
TITLE “Never Return To Hell”
PERFORMER “Angelic Upstarts ”
FLAGS DCP
INDEX 01 53:24:22
TRACK 19 AUDIO
TITLE “When Will They Learn”
PERFORMER “Angelic Upstarts ”
FLAGS DCP
INDEX 01 56:21:07
TRACK 20 AUDIO
TITLE “No Nukes”
PERFORMER “Angelic Upstarts ”
FLAGS DCP
INDEX 01 59:18:21


Leave a Reply

Your email address will not be published. Required fields are marked *

This site uses Akismet to reduce spam. Learn how your comment data is processed.