Angelic Upstarts – Bombed Out




Artist: Angelic Upstarts
Year: 1991
Genre: Punk
Notes: Discogs
Add. Notes:
Cover incl.: Yes
Encoder: FLAC
Bitrate: ~1000 kBit/s (44.1 kHz/16 Bit/s)
Log & Cue incl.: Yes
Size: 233,27 MB
Password: “slam” (without ” “)


All Downloads/Hosters are compatible

Download 1
Turbobit.net
Rapidgator.net
KatFile.com
UploadRar.com
Download 2
Turbobit.net
Rapidgator.net
KatFile.com
UploadRar.com
Download 3
Turbobit.net
Rapidgator.net
KatFile.com
UploadRar.com

Tracklist:

1. Red Till Dead
2. Albert`s Gotta Gun
3. Victim Of Deciet 
4. Open Your Eyes 
5. Still Fighting 
6. The Writing On The Wall
7. A Real Rain 
8. Let`s Build A Bomb 
9. Proud & Loud 
10. Stone Faced Killer

EAC-Log, CUE-Sheed & NFO:

Click to open spoiler
Exact Audio Copy V1.0 beta 3 from 29. August 2011

EAC extraction logfile from 17. December 2014, 10:08

Angelic Upstarts / Bombed Out

Used drive : ATAPI iHAS124 B Adapter: 1 ID: 1

Read mode : Secure
Utilize accurate stream : Yes
Defeat audio cache : Yes
Make use of C2 pointers : No

Read offset correction : 6
Overread into Lead-In and Lead-Out : No
Fill up missing offset samples with silence : Yes
Delete leading and trailing silent blocks : No
Null samples used in CRC calculations : Yes
Used interface : Installed external ASPI interface

Used output format : User Defined Encoder
Selected bitrate : 1024 kBit/s
Quality : High
Add ID3 tag : No
Command line compressor : C:\Program Files\FLAC\flac.exe
Additional command line options : -V -8 -T “Date=%year%” -T “Genre=%genre%” %source%

TOC of the extracted CD

Track | Start | Length | Start sector | End sector
———————————————————
1 | 0:00.00 | 3:00.39 | 0 | 13538
2 | 3:00.39 | 3:19.72 | 13539 | 28535
3 | 6:20.36 | 3:12.18 | 28536 | 42953
4 | 9:32.54 | 3:10.27 | 42954 | 57230
5 | 12:43.06 | 3:09.19 | 57231 | 71424
6 | 15:52.25 | 4:18.49 | 71425 | 90823
7 | 20:10.74 | 3:33.33 | 90824 | 106831
8 | 23:44.32 | 2:52.16 | 106832 | 119747
9 | 26:36.48 | 3:29.52 | 119748 | 135474
10 | 30:06.25 | 2:33.45 | 135475 | 146994

Range status and errors

Selected range

Filename D:\Angelic Upstarts – Bombed Out (1991)\Angelic Upstarts – Bombed Out.wav

Peak level 100.0 %
Extraction speed 8.2 X
Range quality 100.0 %
Test CRC 39125D07
Copy CRC 39125D07
Copy OK

No errors occurred

AccurateRip summary

Track 1 not present in database
Track 2 not present in database
Track 3 not present in database
Track 4 not present in database
Track 5 not present in database
Track 6 not present in database
Track 7 not present in database
Track 8 not present in database
Track 9 not present in database
Track 10 not present in database

None of the tracks are present in the AccurateRip database

End of status report

==== Log checksum 6C9D5AD3FD4EDC41A5F66440A114CB10A3317610BB18D1DDDC5291BC1508FCC0 ====

REM GENRE “Punk Rock”
REM DATE 1991
REM DISCID 8907A70A
REM COMMENT “ExactAudioCopy v1.0b3”
PERFORMER “Angelic Upstarts”
TITLE “Bombed Out”
FILE “Angelic Upstarts – Bombed Out.flac” WAVE
TRACK 01 AUDIO
TITLE “Red Till Dead”
PERFORMER “Angelic Upstarts”
FLAGS DCP
INDEX 01 00:00:00
TRACK 02 AUDIO
TITLE “Albert’s Gotta Gun”
PERFORMER “Angelic Upstarts”
FLAGS DCP
INDEX 01 03:00:39
TRACK 03 AUDIO
TITLE “Victim Of Deceit”
PERFORMER “Angelic Upstarts”
FLAGS DCP
INDEX 01 06:20:36
TRACK 04 AUDIO
TITLE “Open Your Eyes”
PERFORMER “Angelic Upstarts”
FLAGS DCP
INDEX 01 09:32:54
TRACK 05 AUDIO
TITLE “Still Fighting”
PERFORMER “Angelic Upstarts”
FLAGS DCP
INDEX 01 12:43:06
TRACK 06 AUDIO
TITLE “The Writing On The Wall”
PERFORMER “Angelic Upstarts”
FLAGS DCP
INDEX 01 15:52:25
TRACK 07 AUDIO
TITLE “A Real Rain”
PERFORMER “Angelic Upstarts”
FLAGS DCP
INDEX 01 20:10:74
TRACK 08 AUDIO
TITLE “Let’s Build A Bomb”
PERFORMER “Angelic Upstarts”
FLAGS DCP
INDEX 01 23:44:32
TRACK 09 AUDIO
TITLE “Proud & Loud”
PERFORMER “Angelic Upstarts”
FLAGS DCP
INDEX 01 26:36:48
TRACK 10 AUDIO
TITLE “Stone Faced Killer”
PERFORMER “Angelic Upstarts”
FLAGS DCP
INDEX 01 30:06:25


Leave a Reply

Your email address will not be published. Required fields are marked *

This site uses Akismet to reduce spam. Learn how your comment data is processed.