Almanac – Rush Of Death




No Cover available


Artist: Almanac
Year: 2020
Genre: Metal
Notes: Discogs
Add. Notes:
Watch Songs on: YouTube
Cover incl.: Yes
Encoder: FLAC
Bitrate: ~1000 kBit/s (44.1 kHz/16 Bit/s)
Log & Cue incl.: Yes/Yes
Size: 419 MB
Password: “slam” (without ” “)


All Downloads/Hosters are compatible

Download 1
KatFile.com
Turbobit.net
Rapidgator.net
FileFactory.com
Download 2
KatFile.com
Turbobit.net
Rapidgator.net
FileFactory.com

Tracklist:

1 Predator 
2 Rush Of Death 
3 Let The Show Begin 
4 Soiled Existence 
5 Bought And Sold 
6 The Human Essence 
7 Satisfied 
8 Blink Of An Eye 
9 Can't Hold Me Back 
10 Like A Machine

EAC-Log, CUE-Sheed & NFO:

Click to open spoiler
Exact Audio Copy V1.5 from 20. February 2020

Отчёт EAC об извлечении, выполненном 19. марта 2020, 23:14

Almanac / Rush Of Death

Дисковод: ASUS DRW-24D5MT Adapter: 1 ID: 0

Режим чтения : Достоверность
Использование точного потока : Да
Отключение кэша аудио : Да
Использование указателей C2 : Нет

Коррекция смещения при чтении : 6
Способность читать области Lead-in и Lead-out : Нет
Заполнение пропущенных сэмплов тишиной : Да
Удаление блоков с тишиной в начале и конце : Нет
При вычислениях CRC использовались нулевые сэмплы : Да
Интерфейс : Встроенный Win32-интерфейс для Win NT/2000
Обработка зазоров : Добавлено к предыдущему треку

Выходной формат : Пользовательский кодировщик
Выбранный битрейт : 128 kBit/s
Качество : Высокий
Добавление ID3-тега : Нет
Утилита сжатия : C:\Program Files (x86)\Exact Audio Copy\FLAC\FLAC.EXE
Дополнительные параметры : -V -8 -T “Genre=%genre%” -T “Artist=%artist%” -T “Title=%title%” -T “Album=%albumtitle%” -T “Date=%year%” -T “Tracknumber=%tracknr%” -T “Comment=%comment%” %source%

TOC извлечённого CD

Трек | Старт | Длительность | Начальный сектор | Конечный сектор
———————————————————————
1 | 0:00.00 | 4:48.10 | 0 | 21609
2 | 4:48.10 | 6:31.20 | 21610 | 50954
3 | 11:19.30 | 1:18.54 | 50955 | 56858
4 | 12:38.09 | 5:18.41 | 56859 | 80749
5 | 17:56.50 | 5:02.57 | 80750 | 103456
6 | 22:59.32 | 1:08.46 | 103457 | 108602
7 | 24:08.03 | 7:32.66 | 108603 | 142568
8 | 31:40.69 | 4:49.21 | 142569 | 164264
9 | 36:30.15 | 4:46.45 | 164265 | 185759
10 | 41:16.60 | 5:52.19 | 185760 | 212178

Трек 1

Имя файла M:\Рипы\Новая папка (2)\01. Predator.wav

Длина предзазора 0:00:02.00

Пиковый уровень 99.7 %
Скорость извлечения 4.5 X
Качество трека 99.9 %
CRC теста 062B2026
CRC копии 062B2026
Трек не обнаружен в базе AccurateRip
Копирование… OK

Трек 2

Имя файла M:\Рипы\Новая папка (2)\02. Rush Of Death.wav

Пиковый уровень 99.7 %
Скорость извлечения 5.8 X
Качество трека 100.0 %
CRC теста B082AC38
CRC копии B082AC38
Трек не обнаружен в базе AccurateRip
Копирование… OK

Трек 3

Имя файла M:\Рипы\Новая папка (2)\03. Let The Show Begin.wav

Пиковый уровень 99.7 %
Скорость извлечения 4.5 X
Качество трека 100.0 %
CRC теста 68A3C384
CRC копии 68A3C384
Трек не обнаружен в базе AccurateRip
Копирование… OK

Трек 4

Имя файла M:\Рипы\Новая папка (2)\04. Soiled Existence.wav

Пиковый уровень 99.7 %
Скорость извлечения 6.4 X
Качество трека 100.0 %
CRC теста 831AE7A7
CRC копии 831AE7A7
Трек не обнаружен в базе AccurateRip
Копирование… OK

Трек 5

Имя файла M:\Рипы\Новая папка (2)\05. Bought And Sold.wav

Пиковый уровень 99.7 %
Скорость извлечения 6.1 X
Качество трека 99.9 %
CRC теста 0915B4AC
CRC копии 0915B4AC
Трек не обнаружен в базе AccurateRip
Копирование… OK

Трек 6

Имя файла M:\Рипы\Новая папка (2)\06. The Human Essence.wav

Пиковый уровень 99.7 %
Скорость извлечения 5.0 X
Качество трека 100.0 %
CRC теста 5A21F8D4
CRC копии 5A21F8D4
Трек не обнаружен в базе AccurateRip
Копирование… OK

Трек 7

Имя файла M:\Рипы\Новая папка (2)\07. Satisfied.wav

Пиковый уровень 99.7 %
Скорость извлечения 7.6 X
Качество трека 100.0 %
CRC теста C17963C5
CRC копии C17963C5
Трек не обнаружен в базе AccurateRip
Копирование… OK

Трек 8

Имя файла M:\Рипы\Новая папка (2)\08. Blink Of An Eye.wav

Пиковый уровень 99.7 %
Скорость извлечения 7.7 X
Качество трека 100.0 %
CRC теста BECFDFE9
CRC копии BECFDFE9
Трек не обнаружен в базе AccurateRip
Копирование… OK

Трек 9

Имя файла M:\Рипы\Новая папка (2)\09. Can’t Hold Me Back.wav

Пиковый уровень 99.7 %
Скорость извлечения 8.0 X
Качество трека 100.0 %
CRC теста 957A9B08
CRC копии 957A9B08
Трек не обнаружен в базе AccurateRip
Копирование… OK

Трек 10

Имя файла M:\Рипы\Новая папка (2)\10. Like A Machine.wav

Пиковый уровень 99.7 %
Скорость извлечения 7.8 X
Качество трека 99.9 %
CRC теста 6B80C837
CRC копии 6B80C837
Трек не обнаружен в базе AccurateRip
Копирование… OK

Ни одного трека нет в базе AccurateRip

Ошибок не произошло

Конец отчёта

—- CUETools DB Plugin V2.1.6

[CTDB TOCID: Mx9H65M0p531xfhW8AxvO02ocqw-] found
Submit result: Mx9H65M0p531xfhW8AxvO02ocqw- has been confirmed
Track | CTDB Status
1 | (11/11) Accurately ripped
2 | (11/11) Accurately ripped
3 | (11/11) Accurately ripped
4 | (11/11) Accurately ripped
5 | (11/11) Accurately ripped
6 | (11/11) Accurately ripped
7 | (11/11) Accurately ripped
8 | (11/11) Accurately ripped
9 | (11/11) Accurately ripped
10 | (11/11) Accurately ripped

==== Контрольная сумма отчёта 47C58887C788F667D8A5B4C727DDE881928BF8E9E4742F1B320EEC1D8095A330 ====

REM GENRE “Power Metal”
REM DATE 2020
REM DISCID 7F0B0D0A
REM COMMENT “ExactAudioCopy v1.5”
CATALOG 0727361509500
PERFORMER “Almanac”
TITLE “Rush Of Death”
REM COMPOSER “”
FILE “01. Predator.wav” WAVE
TRACK 01 AUDIO
TITLE “Predator”
PERFORMER “Almanac”
REM COMPOSER “Jeannette Marchewka”
ISRC DED831901376
INDEX 01 00:00:00
FILE “02. Rush Of Death.wav” WAVE
TRACK 02 AUDIO
TITLE “Rush Of Death”
PERFORMER “Almanac”
REM COMPOSER “Jeannette Marchewka”
ISRC DED831901377
INDEX 01 00:00:00
FILE “03. Let The Show Begin.wav” WAVE
TRACK 03 AUDIO
TITLE “Let The Show Begin”
PERFORMER “Almanac”
REM COMPOSER “Tim Rashid”
ISRC DED831901378
INDEX 01 00:00:00
FILE “04. Soiled Existence.wav” WAVE
TRACK 04 AUDIO
TITLE “Soiled Existence”
PERFORMER “Almanac”
REM COMPOSER “Patrick Suehl”
ISRC DED831901379
INDEX 01 00:00:00
FILE “05. Bought And Sold.wav” WAVE
TRACK 05 AUDIO
TITLE “Bought And Sold”
PERFORMER “Almanac”
REM COMPOSER “Patrick Suehl”
ISRC DED831901380
INDEX 01 00:00:00
FILE “06. The Human Essence.wav” WAVE
TRACK 06 AUDIO
TITLE “The Human Essence”
PERFORMER “Almanac”
REM COMPOSER “Tim Rashid”
ISRC DED831901381
INDEX 01 00:00:00
FILE “07. Satisfied.wav” WAVE
TRACK 07 AUDIO
TITLE “Satisfied”
PERFORMER “Almanac”
REM COMPOSER “Jeannette Marchewka”
ISRC DED831901382
INDEX 01 00:00:00
FILE “08. Blink Of An Eye.wav” WAVE
TRACK 08 AUDIO
TITLE “Blink Of An Eye”
PERFORMER “Almanac”
REM COMPOSER “Patrick Suehl”
ISRC DED831901383
INDEX 01 00:00:00
FILE “09. Can’t Hold Me Back.wav” WAVE
TRACK 09 AUDIO
TITLE “Can’t Hold Me Back”
PERFORMER “Almanac”
REM COMPOSER “Tim Rashid”
ISRC DED831901384
INDEX 01 00:00:00
FILE “10. Like A Machine.wav” WAVE
TRACK 10 AUDIO
TITLE “Like A Machine”
PERFORMER “Almanac”
REM COMPOSER “Tim Rashid”
ISRC DED831901385
INDEX 01 00:00:00


Leave a Reply

Your email address will not be published. Required fields are marked *

Enter the text from the image below
 

This site uses Akismet to reduce spam. Learn how your comment data is processed.