Alkaline Trio & One Man Army – BYO Split Series, Vol. 5




No Cover available


Artist: Alkaline Trio & One Man Army
Year: 2004
Genre: Punk
Notes: Discogs
Add. Notes:
Watch Songs on: YouTube
Cover incl.: Yes
Encoder: FLAC
Bitrate: ~1000 kBit/s (44.1 kHz/16 Bit/s)
Log & Cue incl.: Yes/Yes
Size: 254,8 MB
Password: “slam” (without ” “)


All Downloads/Hosters are compatible

Download 1
KatFile.com
Turbobit.net
Rapidgator.net
FileFactory.com
Download 2
KatFile.com
Turbobit.net
Rapidgator.net
FileFactory.com

Tracklist:

1. Alkaline Trio - Fine Without You - 3:15
2. Alkaline Trio - Hating Every Minute - 3:03
3. Alkaline Trio - Dead And Broken - 2:09
4. Alkaline Trio - Sadie - 4:38
5. Alkaline Trio - If You Had A Bad Time... - 3:38
6. Alkaline Trio - Wait For The Blackout - 3:29
7. One Man Army - The T.V. Song - 2:31
8. One Man Army - The Hemophiliac - 1:28
9. One Man Army - All The Way - 2:26
10. One Man Army - The Radio Airwaves Gave Me A 
Lobotomy - 2:04
11. One Man Army - I.F.H.A. (One Love) - 2:07
12. One Man Army - Let's Call It An Evening - 2:57

EAC-Log, CUE-Sheed & NFO:

Click to open spoiler
Exact Audio Copy V0.99 prebeta 4 from 23. January 2008

EAC extraction logfile from 31. January 2009, 14:06

Various / BYO Split Series, Vol. 5

Used drive : SONY DVD RW DRU-720A Adapter: 0 ID: 0

Read mode : Secure
Utilize accurate stream : Yes
Defeat audio cache : Yes
Make use of C2 pointers : No

Read offset correction : 12
Overread into Lead-In and Lead-Out : No
Fill up missing offset samples with silence : Yes
Delete leading and trailing silent blocks : No
Null samples used in CRC calculations : Yes
Used interface : Native Win32 interface for Win NT & 2000
Gap handling : Appended to previous track

Used output format : User Defined Encoder
Selected bitrate : 192 kBit/s
Quality : High
Add ID3 tag : No
Command line compressor : C:\Program Files\Exact Audio Copy\Flac\flac.exe
Additional command line options : -V -8 -T “artist=%a” -T “title=%t” -T “album=%g” -T “date=%y” -T “tracknumber=%n” -T “genre=%m” %s

TOC of the extracted CD

Track | Start | Length | Start sector | End sector
———————————————————
1 | 0:00.00 | 3:15.45 | 0 | 14669
2 | 3:15.45 | 3:03.07 | 14670 | 28401
3 | 6:18.52 | 2:09.23 | 28402 | 38099
4 | 8:28.00 | 4:38.60 | 38100 | 59009
5 | 13:06.60 | 3:38.07 | 59010 | 75366
6 | 16:44.67 | 3:29.28 | 75367 | 91069
7 | 20:14.20 | 2:31.67 | 91070 | 102461
8 | 22:46.12 | 1:28.48 | 102462 | 109109
9 | 24:14.60 | 2:26.55 | 109110 | 120114
10 | 26:41.40 | 2:04.50 | 120115 | 129464
11 | 28:46.15 | 2:07.22 | 129465 | 139011
12 | 30:53.37 | 2:57.45 | 139012 | 152331

Track 1

Filename C:\Users\Jeff\Desktop\BYO Split Series, Vol. 5 – 2004\01 – Alkaline Trio – Fine Without You.wav

Pre-gap length 0:00:02.00

Peak level 96.6 %
Track quality 99.9 %
Test CRC 20A6AE33
Copy CRC 20A6AE33
Accurately ripped (confidence 5) [923327A4]
Copy OK

Track 2

Filename C:\Users\Jeff\Desktop\BYO Split Series, Vol. 5 – 2004\02 – Alkaline Trio – Hating Every Minute.wav

Peak level 96.6 %
Track quality 100.0 %
Test CRC B4DE2DEC
Copy CRC B4DE2DEC
Accurately ripped (confidence 5) [070906B0]
Copy OK

Track 3

Filename C:\Users\Jeff\Desktop\BYO Split Series, Vol. 5 – 2004\03 – Alkaline Trio – Dead And Broken.wav

Peak level 100.0 %
Track quality 100.0 %
Test CRC 6CF17821
Copy CRC 6CF17821
Accurately ripped (confidence 5) [4DED93C3]
Copy OK

Track 4

Filename C:\Users\Jeff\Desktop\BYO Split Series, Vol. 5 – 2004\04 – Alkaline Trio – Sadie.wav

Peak level 96.6 %
Track quality 100.0 %
Test CRC 3BC12424
Copy CRC 3BC12424
Accurately ripped (confidence 5) [2F1D616A]
Copy OK

Track 5

Filename C:\Users\Jeff\Desktop\BYO Split Series, Vol. 5 – 2004\05 – Alkaline Trio – If You Had A Bad Time….wav

Peak level 96.6 %
Track quality 100.0 %
Test CRC 679827DB
Copy CRC 679827DB
Accurately ripped (confidence 5) [F8063360]
Copy OK

Track 6

Filename C:\Users\Jeff\Desktop\BYO Split Series, Vol. 5 – 2004\06 – Alkaline Trio – Wait For The Blackout.wav

Peak level 97.5 %
Track quality 100.0 %
Test CRC E12B8CB9
Copy CRC E12B8CB9
Accurately ripped (confidence 4) [A7A71406]
Copy OK

Track 7

Filename C:\Users\Jeff\Desktop\BYO Split Series, Vol. 5 – 2004\07 – One Man Army – The T.V. Song.wav

Peak level 96.6 %
Track quality 100.0 %
Test CRC B747FA20
Copy CRC B747FA20
Accurately ripped (confidence 4) [D97785A3]
Copy OK

Track 8

Filename C:\Users\Jeff\Desktop\BYO Split Series, Vol. 5 – 2004\08 – One Man Army – The Hemophiliac.wav

Peak level 96.6 %
Track quality 99.8 %
Test CRC 6F01BF3D
Copy CRC 6F01BF3D
Accurately ripped (confidence 3) [0EC10AB6]
Copy OK

Track 9

Filename C:\Users\Jeff\Desktop\BYO Split Series, Vol. 5 – 2004\09 – One Man Army – All The Way.wav

Peak level 96.6 %
Track quality 100.0 %
Test CRC 136F2AFC
Copy CRC 136F2AFC
Accurately ripped (confidence 3) [2CBF49C7]
Copy OK

Track 10

Filename C:\Users\Jeff\Desktop\BYO Split Series, Vol. 5 – 2004\10 – One Man Army – The Radio Airwaves Gave Me a Lobotomy.wav

Peak level 96.6 %
Track quality 100.0 %
Test CRC CE114E34
Copy CRC CE114E34
Accurately ripped (confidence 3) [DEDDF705]
Copy OK

Track 11

Filename C:\Users\Jeff\Desktop\BYO Split Series, Vol. 5 – 2004\11 – One Man Army – I.F.H.A. (one love).wav

Peak level 96.6 %
Track quality 100.0 %
Test CRC 6001CED6
Copy CRC 6001CED6
Accurately ripped (confidence 2) [BBC1D4DC]
Copy OK

Track 12

Filename C:\Users\Jeff\Desktop\BYO Split Series, Vol. 5 – 2004\12 – One Man Army – Let’s Call it an Evening.wav

Peak level 96.6 %
Track quality 100.0 %
Test CRC 8004D60F
Copy CRC 8004D60F
Accurately ripped (confidence 2) [C6268095]
Copy OK

All tracks accurately ripped

No errors occurred

End of status report

REM GENRE Punk
REM DATE 2004
REM DISCID 9D07EF0C
REM COMMENT “ExactAudioCopy v0.99pb4”
PERFORMER “Various”
TITLE “BYO Split Series, Vol. 5”
FILE “BYO Split Series, Vol. 5 – 2004\01 – Alkaline Trio – Fine Without You.wav” WAVE
TRACK 01 AUDIO
TITLE “Fine Without You”
PERFORMER “Alkaline Trio”
INDEX 01 00:00:00
FILE “BYO Split Series, Vol. 5 – 2004\02 – Alkaline Trio – Hating Every Minute.wav” WAVE
TRACK 02 AUDIO
TITLE “Hating Every Minute”
PERFORMER “Alkaline Trio”
INDEX 01 00:00:00
FILE “BYO Split Series, Vol. 5 – 2004\03 – Alkaline Trio – Dead And Broken.wav” WAVE
TRACK 03 AUDIO
TITLE “Dead And Broken”
PERFORMER “Alkaline Trio”
INDEX 01 00:00:00
FILE “BYO Split Series, Vol. 5 – 2004\04 – Alkaline Trio – Sadie.wav” WAVE
TRACK 04 AUDIO
TITLE “Sadie”
PERFORMER “Alkaline Trio”
INDEX 01 00:00:00
FILE “BYO Split Series, Vol. 5 – 2004\05 – Alkaline Trio – If You Had A Bad Time….wav” WAVE
TRACK 05 AUDIO
TITLE “If You Had A Bad Time…”
PERFORMER “Alkaline Trio”
INDEX 01 00:00:00
FILE “BYO Split Series, Vol. 5 – 2004\06 – Alkaline Trio – Wait For The Blackout.wav” WAVE
TRACK 06 AUDIO
TITLE “Wait For The Blackout”
PERFORMER “Alkaline Trio”
INDEX 01 00:00:00
FILE “BYO Split Series, Vol. 5 – 2004\07 – One Man Army – The T.V. Song.wav” WAVE
TRACK 07 AUDIO
TITLE “The T.V. Song”
PERFORMER “One Man Army”
INDEX 01 00:00:00
FILE “BYO Split Series, Vol. 5 – 2004\08 – One Man Army – The Hemophiliac.wav” WAVE
TRACK 08 AUDIO
TITLE “The Hemophiliac”
PERFORMER “One Man Army”
INDEX 01 00:00:00
FILE “BYO Split Series, Vol. 5 – 2004\09 – One Man Army – All The Way.wav” WAVE
TRACK 09 AUDIO
TITLE “All The Way”
PERFORMER “One Man Army”
INDEX 01 00:00:00
FILE “BYO Split Series, Vol. 5 – 2004\10 – One Man Army – The Radio Airwaves Gave Me a Lobotomy.wav” WAVE
TRACK 10 AUDIO
TITLE “The Radio Airwaves Gave Me a Lobotomy”
PERFORMER “One Man Army”
INDEX 01 00:00:00
FILE “BYO Split Series, Vol. 5 – 2004\11 – One Man Army – I.F.H.A. (one love).wav” WAVE
TRACK 11 AUDIO
TITLE “I.F.H.A. (one love)”
PERFORMER “One Man Army”
INDEX 01 00:00:00
FILE “BYO Split Series, Vol. 5 – 2004\12 – One Man Army – Let’s Call it an Evening.wav” WAVE
TRACK 12 AUDIO
TITLE “Let’s Call it an Evening”
PERFORMER “One Man Army”
INDEX 01 00:00:00


0

Publication author

offline 5 days

Chaos

3
Comments: 4Publics: 3565Registration: 02-02-2019
Spread the Download

Leave a Reply

Your email address will not be published. Required fields are marked *

Enter the text from the image below
 

This site uses Akismet to reduce spam. Learn how your comment data is processed.