Alkaline Trio – Maybe I’ll Catch Fire




No Cover available

Artist: Alkaline Trio
Year: 1999
Genre: Punk
Notes: Discogs
Add. Notes:
Watch Songs on: YouTube
Cover incl.: Yes
Encoder: FLAC
Bitrate: ~1000 kBit/s (44.1 kHz/16 Bit/s)
Log & Cue incl.: Yes/Yes
Size: 259,4 MB
Password: “slam” (without ” “)


All Downloads/Hosters are compatible

Download 1
KatFile.com
Turbobit.net
Rapidgator.net
FileFactory.com
Download 2
KatFile.com
Turbobit.net
Rapidgator.net
FileFactory.com

Tracklist:

1 Keep 'Em Coming 4:10
2 Madam Me 2:59
3 You've Got So Far To Go 3:14
4 Fuck You Aurora 4:49
5 Sleepyhead 3:56
6 Maybe I'll Catch Fire 3:07
7 Tuck Me In 2:39
8 She Took Him To The Lake 2:40
9 5–3–10–4 2:56
10 Radio 4:41

EAC-Log, CUE-Sheed & NFO:

Click to open spoiler
Exact Audio Copy V0.99 prebeta 4 from 23. January 2008

EAC extraction logfile from 29. July 2008, 23:02

Alkaline Trio / Maybe I’ll Catch Fire

Used drive : MATSHITADVD/CDRW UJDA775 Adapter: 1 ID: 0

Read mode : Secure
Utilize accurate stream : Yes
Defeat audio cache : Yes
Make use of C2 pointers : No

Read offset correction : 102
Overread into Lead-In and Lead-Out : No
Fill up missing offset samples with silence : Yes
Delete leading and trailing silent blocks : No
Null samples used in CRC calculations : Yes
Used interface : Native Win32 interface for Win NT & 2000
Gap handling : Appended to previous track

Used output format : User Defined Encoder
Selected bitrate : 768 kBit/s
Quality : High
Add ID3 tag : No
Command line compressor : C:\Program Files\Exact Audio Copy\FLAC\FLAC.EXE
Additional command line options : -V -8 -T “artist=%a” -T “title=%t” -T “album=%g” -T “date=%y” -T “tracknumber=%n” -T “genre=%m” %s

TOC of the extracted CD

Track | Start | Length | Start sector | End sector
———————————————————
1 | 0:00.00 | 4:10.20 | 0 | 18769
2 | 4:10.20 | 2:59.64 | 18770 | 32258
3 | 7:10.09 | 3:14.59 | 32259 | 46867
4 | 10:24.68 | 4:49.53 | 46868 | 68595
5 | 15:14.46 | 3:56.13 | 68596 | 86308
6 | 19:10.59 | 3:07.36 | 86309 | 100369
7 | 22:18.20 | 2:39.35 | 100370 | 112329
8 | 24:57.55 | 2:40.53 | 112330 | 124382
9 | 27:38.33 | 2:56.05 | 124383 | 137587
10 | 30:34.38 | 4:41.03 | 137588 | 158665

Track 1

Filename D:\music\rips\Alkaline Trio – Maybe I’ll Catch Fire (1999)\01 Keep ‘Em Coming.wav

Pre-gap length 0:00:02.00

Peak level 99.7 %
Track quality 100.0 %
Test CRC 43F959AA
Copy CRC 43F959AA
Accurately ripped (confidence 7) [945DBB1E]
Copy OK

Track 2

Filename D:\music\rips\Alkaline Trio – Maybe I’ll Catch Fire (1999)\02 Madam Me.wav

Pre-gap length 0:00:02.12

Peak level 99.7 %
Track quality 100.0 %
Test CRC 99CED284
Copy CRC 99CED284
Accurately ripped (confidence 7) [6C1A2ACD]
Copy OK

Track 3

Filename D:\music\rips\Alkaline Trio – Maybe I’ll Catch Fire (1999)\03 You’ve Got So Far To Go.wav

Pre-gap length 0:00:01.13

Peak level 99.7 %
Track quality 100.0 %
Test CRC DFCEBBD4
Copy CRC DFCEBBD4
Accurately ripped (confidence 7) [C2952102]
Copy OK

Track 4

Filename D:\music\rips\Alkaline Trio – Maybe I’ll Catch Fire (1999)\04 Fuck You Aurora.wav

Pre-gap length 0:00:00.96

Peak level 99.7 %
Track quality 100.0 %
Test CRC DD11807F
Copy CRC DD11807F
Accurately ripped (confidence 6) [57C7028C]
Copy OK

Track 5

Filename D:\music\rips\Alkaline Trio – Maybe I’ll Catch Fire (1999)\05 Sleepyhead.wav

Pre-gap length 0:00:01.01

Peak level 99.7 %
Track quality 100.0 %
Test CRC 1EBAFADD
Copy CRC 1EBAFADD
Accurately ripped (confidence 7) [BC88C416]
Copy OK

Track 6

Filename D:\music\rips\Alkaline Trio – Maybe I’ll Catch Fire (1999)\06 Maybe I’ll Catch Fire.wav

Pre-gap length 0:00:03.54

Peak level 99.7 %
Track quality 100.0 %
Test CRC 33145EC6
Copy CRC 33145EC6
Accurately ripped (confidence 7) [64DEE4D9]
Copy OK

Track 7

Filename D:\music\rips\Alkaline Trio – Maybe I’ll Catch Fire (1999)\07 Tuck Me In.wav

Pre-gap length 0:00:00.49

Peak level 99.7 %
Track quality 100.0 %
Test CRC 4C824C5F
Copy CRC 4C824C5F
Accurately ripped (confidence 7) [118E1198]
Copy OK

Track 8

Filename D:\music\rips\Alkaline Trio – Maybe I’ll Catch Fire (1999)\08 She Took Him To The Lake.wav

Pre-gap length 0:00:01.26

Peak level 99.7 %
Track quality 99.9 %
Test CRC 8577995B
Copy CRC 8577995B
Accurately ripped (confidence 7) [B69506A4]
Copy OK

Track 9

Filename D:\music\rips\Alkaline Trio – Maybe I’ll Catch Fire (1999)\09 5-3-10-4.wav

Pre-gap length 0:00:02.45

Peak level 99.7 %
Track quality 100.0 %
Test CRC 8EEFF6A8
Copy CRC 8EEFF6A8
Accurately ripped (confidence 7) [D5FFE30D]
Copy OK

Track 10

Filename D:\music\rips\Alkaline Trio – Maybe I’ll Catch Fire (1999)\10 Radio.wav

Pre-gap length 0:00:02.88

Peak level 99.7 %
Track quality 100.0 %
Test CRC 05463C67
Copy CRC 05463C67
Accurately ripped (confidence 7) [EAEC01FC]
Copy OK

All tracks accurately ripped

No errors occurred

End of status report
REM GENRE “Punk Rock”
REM DATE 1999
REM DISCID 7908430A
REM COMMENT “ExactAudioCopy v0.99pb4”
PERFORMER “Alkaline Trio”
TITLE “Maybe I’ll Catch Fire”
FILE “Alkaline Trio – Maybe I’ll Catch Fire (1999)\01 Keep ‘Em Coming.wav” WAVE
TRACK 01 AUDIO
TITLE “Keep ‘Em Coming”
PERFORMER “Alkaline Trio”
INDEX 01 00:00:00
TRACK 02 AUDIO
TITLE “Madam Me”
PERFORMER “Alkaline Trio”
INDEX 00 04:08:11
FILE “Alkaline Trio – Maybe I’ll Catch Fire (1999)\02 Madam Me.wav” WAVE
INDEX 01 00:00:00
TRACK 03 AUDIO
TITLE “You’ve Got So Far To Go”
PERFORMER “Alkaline Trio”
INDEX 00 02:58:54
FILE “Alkaline Trio – Maybe I’ll Catch Fire (1999)\03 You’ve Got So Far To Go.wav” WAVE
INDEX 01 00:00:00
TRACK 04 AUDIO
TITLE “Fuck You Aurora”
PERFORMER “Alkaline Trio”
INDEX 00 03:13:62
FILE “Alkaline Trio – Maybe I’ll Catch Fire (1999)\04 Fuck You Aurora.wav” WAVE
INDEX 01 00:00:00
TRACK 05 AUDIO
TITLE “Sleepyhead”
PERFORMER “Alkaline Trio”
INDEX 00 04:48:52
FILE “Alkaline Trio – Maybe I’ll Catch Fire (1999)\05 Sleepyhead.wav” WAVE
INDEX 01 00:00:00
TRACK 06 AUDIO
TITLE “Maybe I’ll Catch Fire”
PERFORMER “Alkaline Trio”
INDEX 00 03:52:47
FILE “Alkaline Trio – Maybe I’ll Catch Fire (1999)\06 Maybe I’ll Catch Fire.wav” WAVE
INDEX 01 00:00:00
TRACK 07 AUDIO
TITLE “Tuck Me In”
PERFORMER “Alkaline Trio”
INDEX 00 03:06:74
FILE “Alkaline Trio – Maybe I’ll Catch Fire (1999)\07 Tuck Me In.wav” WAVE
INDEX 01 00:00:00
TRACK 08 AUDIO
TITLE “She Took Him To The Lake”
PERFORMER “Alkaline Trio”
INDEX 00 02:38:15
FILE “Alkaline Trio – Maybe I’ll Catch Fire (1999)\08 She Took Him To The Lake.wav” WAVE
INDEX 01 00:00:00
TRACK 09 AUDIO
TITLE “5-3-10-4”
PERFORMER “Alkaline Trio”
INDEX 00 02:38:19
FILE “Alkaline Trio – Maybe I’ll Catch Fire (1999)\09 5-3-10-4.wav” WAVE
INDEX 01 00:00:00
TRACK 10 AUDIO
TITLE “Radio”
PERFORMER “Alkaline Trio”
INDEX 00 02:53:14
FILE “Alkaline Trio – Maybe I’ll Catch Fire (1999)\10 Radio.wav” WAVE
INDEX 01 00:00:00


Leave a Reply

Your email address will not be published. Required fields are marked *

Enter the text from the image below
 

This site uses Akismet to reduce spam. Learn how your comment data is processed.