Alkaline Trio & Hot Water Music – Split




No Cover available

Artist: Alkaline Trio & Hot Water Music
Year: 2002
Genre: Punk
Notes: Discogs
Add. Notes:
Watch Songs on: YouTube
Cover incl.: Yes
Encoder: FLAC
Bitrate: ~1000 kBit/s (44.1 kHz/16 Bit/s)
Log & Cue incl.: Yes/Yes
Size: 174 MB
Password: “slam” (without ” “)


All Downloads/Hosters are compatible

Download 1
KatFile.com
Turbobit.net
Rapidgator.net
FileFactory.com
Download 2
KatFile.com
Turbobit.net
Rapidgator.net
FileFactory.com

Tracklist:

1. Alkaline Trio -  Queen Of Pain -  3:57
2. Alkaline Trio -  While You're Waiting -  4:07
3. Alkaline Trio -  Rooftops -  2:15
4. Hot Water Music -  "God Deciding" -  2:37
5. Hot Water Music -  Russian Roulette -  3:25
6. Hot Water Music -  Radio -  4:12
7. Hot Water Music -  Bleeder -  3:13

EAC-Log, CUE-Sheed & NFO:

Click to open spoiler
Exact Audio Copy V0.99 prebeta 3 from 28. July 2007

EAC extraction logfile from 25. December 2008, 2:05

Alkaline Trio & Hot Water Music / Split

Used drive : TSSTcorpCDDVDW SH-S203B Adapter: 1 ID: 0

Read mode : Secure
Utilize accurate stream : Yes
Defeat audio cache : No
Make use of C2 pointers : No

Read offset correction : 6
Overread into Lead-In and Lead-Out : No
Fill up missing offset samples with silence : Yes
Delete leading and trailing silent blocks : No
Null samples used in CRC calculations : Yes
Used interface : Installed external ASPI interface
Gap handling : Appended to previous track

Used output format : User Defined Encoder
Selected bitrate : 320 kBit/s
Quality : High
Add ID3 tag : No
Command line compressor : C:\Program Files\Exact Audio Copy\flac.exe
Additional command line options : -V -8 -T “artist=%a” -T “title=%t” -T “album=%g” -T “date=%y” -T “tracknumber=%n” -T “genre=%m” %s

TOC of the extracted CD

Track | Start | Length | Start sector | End sector
———————————————————
1 | 0:00.00 | 3:57.61 | 0 | 17835
2 | 3:57.61 | 4:07.44 | 17836 | 36404
3 | 8:05.30 | 2:15.68 | 36405 | 46597
4 | 10:21.23 | 2:37.09 | 46598 | 58381
5 | 12:58.32 | 3:25.39 | 58382 | 73795
6 | 16:23.71 | 4:12.58 | 73796 | 92753
7 | 20:36.54 | 3:13.28 | 92754 | 107256

Track 1

Filename C:\Documents and Settings\JSM\My Documents\EACrips\Hot Water Music & Alkaline Trio [2002] Split (FLAC)\01 – Alkaline Trio , Queen Of Pain.wav

Pre-gap length 0:00:02.00

Peak level 99.0 %
Track quality 100.0 %
Test CRC 62664C69
Copy CRC 62664C69
Accurately ripped (confidence 7) [E436409A]
Copy OK

Track 2

Filename C:\Documents and Settings\JSM\My Documents\EACrips\Hot Water Music & Alkaline Trio [2002] Split (FLAC)\02 – Alkaline Trio , While You’re Waiting.wav

Peak level 98.9 %
Track quality 100.0 %
Test CRC 2D63E330
Copy CRC 2D63E330
Accurately ripped (confidence 7) [EE6519ED]
Copy OK

Track 3

Filename C:\Documents and Settings\JSM\My Documents\EACrips\Hot Water Music & Alkaline Trio [2002] Split (FLAC)\03 – Alkaline Trio , Rooftops.wav

Peak level 98.4 %
Track quality 100.0 %
Test CRC 6B5C5B9E
Copy CRC 6B5C5B9E
Accurately ripped (confidence 7) [3D175D42]
Copy OK

Track 4

Filename C:\Documents and Settings\JSM\My Documents\EACrips\Hot Water Music & Alkaline Trio [2002] Split (FLAC)\04 – Hot Water Music , ‘God Deciding’.wav

Peak level 99.1 %
Track quality 100.0 %
Test CRC 5B36FD97
Copy CRC 5B36FD97
Accurately ripped (confidence 7) [FDBA27DD]
Copy OK

Track 5

Filename C:\Documents and Settings\JSM\My Documents\EACrips\Hot Water Music & Alkaline Trio [2002] Split (FLAC)\05 – Hot Water Music , Russian Roulette.wav

Peak level 99.1 %
Track quality 99.9 %
Test CRC 92DDD1DF
Copy CRC 92DDD1DF
Accurately ripped (confidence 7) [72300EDF]
Copy OK

Track 6

Filename C:\Documents and Settings\JSM\My Documents\EACrips\Hot Water Music & Alkaline Trio [2002] Split (FLAC)\06 – Hot Water Music , Radio.wav

Peak level 99.1 %
Track quality 100.0 %
Test CRC BAA55490
Copy CRC BAA55490
Accurately ripped (confidence 7) [131B5F9D]
Copy OK

Track 7

Filename C:\Documents and Settings\JSM\My Documents\EACrips\Hot Water Music & Alkaline Trio [2002] Split (FLAC)\07 – Hot Water Music , Bleeder.wav

Peak level 96.2 %
Track quality 100.0 %
Test CRC 09F9FE41
Copy CRC 09F9FE41
Accurately ripped (confidence 6) [BC78C223]
Copy OK

All tracks accurately ripped

No errors occurred

End of status report

REM DATE 2002
REM DISCID 61059607
REM COMMENT “ExactAudioCopy v0.99pb3”
PERFORMER “Alkaline Trio & Hot Water Music”
TITLE “Split”
FILE “01 – Alkaline Trio , Queen Of Pain.wav” WAVE
TRACK 01 AUDIO
TITLE “Alkaline Trio / Queen Of Pain”
PERFORMER “Alkaline Trio & Hot Water Music”
INDEX 01 00:00:00
FILE “02 – Alkaline Trio , While You’re Waiting.wav” WAVE
TRACK 02 AUDIO
TITLE “Alkaline Trio / While You’re Waiting”
PERFORMER “Alkaline Trio & Hot Water Music”
INDEX 01 00:00:00
FILE “03 – Alkaline Trio , Rooftops.wav” WAVE
TRACK 03 AUDIO
TITLE “Alkaline Trio / Rooftops”
PERFORMER “Alkaline Trio & Hot Water Music”
INDEX 01 00:00:00
FILE “04 – Hot Water Music , ‘God Deciding’.wav” WAVE
TRACK 04 AUDIO
TITLE “Hot Water Music / ‘God Deciding'”
PERFORMER “Alkaline Trio & Hot Water Music”
INDEX 01 00:00:00
FILE “05 – Hot Water Music , Russian Roulette.wav” WAVE
TRACK 05 AUDIO
TITLE “Hot Water Music / Russian Roulette”
PERFORMER “Alkaline Trio & Hot Water Music”
INDEX 01 00:00:00
FILE “06 – Hot Water Music , Radio.wav” WAVE
TRACK 06 AUDIO
TITLE “Hot Water Music / Radio”
PERFORMER “Alkaline Trio & Hot Water Music”
INDEX 01 00:00:00
FILE “07 – Hot Water Music , Bleeder.wav” WAVE
TRACK 07 AUDIO
TITLE “Hot Water Music / Bleeder”
PERFORMER “Alkaline Trio & Hot Water Music”
INDEX 01 00:00:00


0

Publication author

offline 8 hours

Chaos

3
Comments: 4Publics: 3360Registration: 02-02-2019
Spread the Download

Leave a Reply

Your email address will not be published. Required fields are marked *

Enter the text from the image below
 

This site uses Akismet to reduce spam. Learn how your comment data is processed.