Alkaline Trio – Good Mourning




No Cover available

Artist: Alkaline Trio
Year: 2003
Genre: Punk
Notes: Discogs
Add. Notes:
Watch Songs on: YouTube
Cover incl.: Yes
Encoder: FLAC
Bitrate: ~1100 kBit/s (44.1 kHz/16 Bit/s)
Log & Cue incl.: Yes/Yes
Size: 298,2 MB
Password: “slam” (without ” “)


All Downloads/Hosters are compatible

Download 1
KatFile.com
Turbobit.net
Rapidgator.net
FileFactory.com
Download 2
KatFile.com
Turbobit.net
Rapidgator.net
FileFactory.com

Tracklist:

1  This Could Be Love  3:47
2  We've Had Enough  2:51
3  One Hundred Stories  3:40
4  Continental  3:28
5  All On Black  4:00
6  Emma  2:42
7  Fatally Yours  2:16
8  Every Thug Needs A Lady  3:18
9  Blue Carolina  3:28
10  Donner Party (All Night)  2:44
11  If We Never Go Inside  3:46
12  Blue In The Face  3:02

EAC-Log, CUE-Sheed & NFO:

Click to open spoiler
EAC extraction logfile from 29. November 2006, 23:11 for CD
Alkaline Trio / Good Mourning

Used drive : _NEC CD-RW NR-9200A Adapter: 1 ID: 0
Read mode : Secure with NO C2, accurate stream, disable cache
Read offset correction : 685
Overread into Lead-In and Lead-Out : No

Used output format : C:\Program Files\FLAC\flac.exe (User Defined Encoder)
128 kBit/s
Additional command line options : -V -8 -T “artist=%a” -T “title=%t” -T “album=%g” -T “date=%y” -T “tracknumber=%n” -T “genre=%m” %s

Other options :
Fill up missing offset samples with silence : Yes
Delete leading and trailing silent blocks : No
Native Win32 interface for Win NT & 2000

Track 1
Filename C:\Documents and Settings\jeremy.OWNER-S7RC1YEZ1\My Documents\Downloads\01 – This Could Be Love.wav

Pre-gap length 0:00:02.00

Peak level 98.8 %
Track quality 99.9 %
Test CRC 53D2A745
Copy CRC 53D2A745
Copy OK

Track 2
Filename C:\Documents and Settings\jeremy.OWNER-S7RC1YEZ1\My Documents\Downloads\02 – We’ve Had Enough.wav

Peak level 98.8 %
Track quality 100.0 %
Test CRC DC82BA3B
Copy CRC DC82BA3B
Copy OK

Track 3
Filename C:\Documents and Settings\jeremy.OWNER-S7RC1YEZ1\My Documents\Downloads\03 – One Hundred Stories.wav

Peak level 98.9 %
Track quality 100.0 %
Test CRC 6E65800A
Copy CRC 6E65800A
Copy OK

Track 4
Filename C:\Documents and Settings\jeremy.OWNER-S7RC1YEZ1\My Documents\Downloads\04 – Continental.wav

Peak level 98.9 %
Track quality 100.0 %
Test CRC 9CCCC149
Copy CRC 9CCCC149
Copy OK

Track 5
Filename C:\Documents and Settings\jeremy.OWNER-S7RC1YEZ1\My Documents\Downloads\05 – All On Black.wav

Pre-gap length 0:00:00.04

Peak level 98.8 %
Track quality 100.0 %
Test CRC B4685675
Copy CRC B4685675
Copy OK

Track 6
Filename C:\Documents and Settings\jeremy.OWNER-S7RC1YEZ1\My Documents\Downloads\06 – Emma.wav

Peak level 98.9 %
Track quality 99.9 %
Test CRC E80932C1
Copy CRC E80932C1
Copy OK

Track 7
Filename C:\Documents and Settings\jeremy.OWNER-S7RC1YEZ1\My Documents\Downloads\07 – Fatally Yours.wav

Peak level 98.8 %
Track quality 100.0 %
Test CRC BFC4C739
Copy CRC BFC4C739
Copy OK

Track 8
Filename C:\Documents and Settings\jeremy.OWNER-S7RC1YEZ1\My Documents\Downloads\08 – Every Thug Needs A Lady.wav

Peak level 100.0 %
Track quality 99.9 %
Test CRC 4B065148
Copy CRC 4B065148
Copy OK

Track 9
Filename C:\Documents and Settings\jeremy.OWNER-S7RC1YEZ1\My Documents\Downloads\09 – Blue Carolina.wav

Peak level 98.8 %
Track quality 100.0 %
Test CRC 7934C91D
Copy CRC 7934C91D
Copy OK

Track 10
Filename C:\Documents and Settings\jeremy.OWNER-S7RC1YEZ1\My Documents\Downloads\10 – Donner Party (All Night).wav

Peak level 98.8 %
Track quality 100.0 %
Test CRC 95B7C2F9
Copy CRC 95B7C2F9
Copy OK

Track 11
Filename C:\Documents and Settings\jeremy.OWNER-S7RC1YEZ1\My Documents\Downloads\11 – If We Never Go Inside.wav

Peak level 98.9 %
Track quality 99.9 %
Test CRC BC497ED7
Copy CRC BC497ED7
Copy OK

Track 12
Filename C:\Documents and Settings\jeremy.OWNER-S7RC1YEZ1\My Documents\Downloads\12 – Blue In The Face.wav

Pre-gap length 0:00:01.54

Peak level 98.8 %
Track quality 99.8 %
Test CRC 3EE3291E
Copy CRC 3EE3291E
Copy OK

No errors occured

End of status report

REM GENRE Rock
REM DATE 2003
REM DISCID 9F092A0C
REM COMMENT “ExactAudioCopy v0.95b4”
PERFORMER “Alkaline Trio”
TITLE “Good Mourning”
FILE “01 – This Could Be Love.wav” WAVE
TRACK 01 AUDIO
TITLE “This Could Be Love”
PERFORMER “Alkaline Trio”
INDEX 01 00:00:00
FILE “02 – We’ve Had Enough.wav” WAVE
TRACK 02 AUDIO
TITLE “We’ve Had Enough”
PERFORMER “Alkaline Trio”
INDEX 01 00:00:00
FILE “03 – One Hundred Stories.wav” WAVE
TRACK 03 AUDIO
TITLE “One Hundred Stories”
PERFORMER “Alkaline Trio”
INDEX 01 00:00:00
FILE “04 – Continental.wav” WAVE
TRACK 04 AUDIO
TITLE “Continental”
PERFORMER “Alkaline Trio”
INDEX 01 00:00:00
TRACK 05 AUDIO
TITLE “All On Black”
PERFORMER “Alkaline Trio”
INDEX 00 03:27:73
FILE “05 – All On Black.wav” WAVE
INDEX 01 00:00:00
FILE “06 – Emma.wav” WAVE
TRACK 06 AUDIO
TITLE “Emma”
PERFORMER “Alkaline Trio”
INDEX 01 00:00:00
FILE “07 – Fatally Yours.wav” WAVE
TRACK 07 AUDIO
TITLE “Fatally Yours”
PERFORMER “Alkaline Trio”
INDEX 01 00:00:00
FILE “08 – Every Thug Needs A Lady.wav” WAVE
TRACK 08 AUDIO
TITLE “Every Thug Needs A Lady”
PERFORMER “Alkaline Trio”
INDEX 01 00:00:00
FILE “09 – Blue Carolina.wav” WAVE
TRACK 09 AUDIO
TITLE “Blue Carolina”
PERFORMER “Alkaline Trio”
INDEX 01 00:00:00
FILE “10 – Donner Party (All Night).wav” WAVE
TRACK 10 AUDIO
TITLE “Donner Party (All Night)”
PERFORMER “Alkaline Trio”
INDEX 01 00:00:00
FILE “11 – If We Never Go Inside.wav” WAVE
TRACK 11 AUDIO
TITLE “If We Never Go Inside”
PERFORMER “Alkaline Trio”
INDEX 01 00:00:00
TRACK 12 AUDIO
TITLE “Blue In The Face”
PERFORMER “Alkaline Trio”
INDEX 00 03:45:19
FILE “12 – Blue In The Face.wav” WAVE
INDEX 01 00:00:00


Leave a Reply

Your email address will not be published. Required fields are marked *

Enter the text from the image below
 

This site uses Akismet to reduce spam. Learn how your comment data is processed.