Alkaline Trio – Alkaline Trio




No Cover available


Artist: Alkaline Trio
Year: 2000
Genre: Punk
Notes: Discogs
Add. Notes:
Watch Songs on: YouTube
Cover incl.: Yes
Encoder: FLAC
Bitrate: ~1000 kBit/s (44.1 kHz/16 Bit/s)
Log & Cue incl.: Yes/Yes
Size: 296,5 MB
Password: “slam” (without ” “)


All Downloads/Hosters are compatible

Download 1
KatFile.com
Turbobit.net
Rapidgator.net
FileFactory.com
Download 2
KatFile.com
Turbobit.net
Rapidgator.net
FileFactory.com

Tracklist:

1 Goodbye Forever 2:50
2 This Is Getting Over You 4:47
3 Bleeder 4:30
4 I Lied My Face Off 4:09
5 My Friend Peter 2:14
6 Snake Oil Tanker 1:22
7 Southern Rock 3:04
8 Cooking Wine 2:18
9 For Your Lungs Only 2:26
10 Exploding Boy 2:57
11 Sun Dials 3:43
12 Nose Over Tail 2:35
13 '97 4:32

EAC-Log, CUE-Sheed & NFO:

Click to open spoiler
Exact Audio Copy V0.99 prebeta 4 from 23. January 2008

EAC extraction logfile from 28. January 2009, 16:00

Alkaline Trio / Alkaline Trio

Used drive : TSSTcorpCDDVDW SH-S223Q Adapter: 3 ID: 1

Read mode : Secure
Utilize accurate stream : Yes
Defeat audio cache : Yes
Make use of C2 pointers : No

Read offset correction : 6
Overread into Lead-In and Lead-Out : No
Fill up missing offset samples with silence : Yes
Delete leading and trailing silent blocks : No
Null samples used in CRC calculations : Yes
Used interface : Native Win32 interface for Win NT & 2000
Gap handling : Appended to previous track

Used output format : User Defined Encoder
Selected bitrate : 128 kBit/s
Quality : High
Add ID3 tag : No
Command line compressor : C:\Program Files\Exact Audio Copy\Flac\flac.exe
Additional command line options : -V -8 -T “artist=%a” -T “title=%t” -T “album=%g” -T “date=%y” -T “tracknumber=%n” -T “genre=%m” %s

TOC of the extracted CD

Track | Start | Length | Start sector | End sector
———————————————————
1 | 0:00.00 | 2:50.27 | 0 | 12776
2 | 2:50.27 | 4:47.28 | 12777 | 34329
3 | 7:37.55 | 4:30.63 | 34330 | 54642
4 | 12:08.43 | 4:09.43 | 54643 | 73360
5 | 16:18.11 | 2:14.66 | 73361 | 83476
6 | 18:33.02 | 1:22.13 | 83477 | 89639
7 | 19:55.15 | 3:04.35 | 89640 | 103474
8 | 22:59.50 | 2:18.71 | 103475 | 113895
9 | 25:18.46 | 2:26.44 | 113896 | 124889
10 | 27:45.15 | 2:57.55 | 124890 | 138219
11 | 30:42.70 | 3:43.60 | 138220 | 155004
12 | 34:26.55 | 2:35.16 | 155005 | 166645
13 | 37:01.71 | 4:32.06 | 166646 | 187051

Track 1

Filename E:\Rips\Alkaline Trio\2000 – Alkaline Trio\01 – Goodbye Forever (From the ‘I Lied My Face Off’ EP).wav

Pre-gap length 0:00:02.00

Peak level 100.0 %
Track quality 99.9 %
Test CRC 15F68529
Copy CRC 15F68529
Accurately ripped (confidence 9) [3BCFAD59]
Copy OK

Track 2

Filename E:\Rips\Alkaline Trio\2000 – Alkaline Trio\02 – This Is Getting Over You (From the ‘I Lied My Face Off’ EP).wav

Peak level 100.0 %
Track quality 100.0 %
Test CRC 88E84052
Copy CRC 88E84052
Accurately ripped (confidence 9) [B128F400]
Copy OK

Track 3

Filename E:\Rips\Alkaline Trio\2000 – Alkaline Trio\03 – Bleeder (From the ‘I Lied My Face Off’ EP).wav

Peak level 100.0 %
Track quality 100.0 %
Test CRC D4AF46F4
Copy CRC D4AF46F4
Accurately ripped (confidence 8) [C72106AE]
Copy OK

Track 4

Filename E:\Rips\Alkaline Trio\2000 – Alkaline Trio\04 – I Lied My Face Off (From the ‘I Lied My Face Off’ EP).wav

Peak level 100.0 %
Track quality 100.0 %
Test CRC 3FB09D68
Copy CRC 3FB09D68
Accurately ripped (confidence 9) [CDC9849F]
Copy OK

Track 5

Filename E:\Rips\Alkaline Trio\2000 – Alkaline Trio\05 – My Friend Peter (From the ‘Magnetic Curses’ Compilation).wav

Pre-gap length 0:00:02.00

Peak level 100.0 %
Track quality 100.0 %
Test CRC 692575DA
Copy CRC 692575DA
Accurately ripped (confidence 9) [733EA824]
Copy OK

Track 6

Filename E:\Rips\Alkaline Trio\2000 – Alkaline Trio\06 – Snake Oil Tanker (From the ‘For Your Lungs Only’ EP).wav

Pre-gap length 0:00:02.00

Peak level 100.0 %
Track quality 100.0 %
Test CRC DED1F44A
Copy CRC DED1F44A
Accurately ripped (confidence 9) [8DEE111A]
Copy OK

Track 7

Filename E:\Rips\Alkaline Trio\2000 – Alkaline Trio\07 – Southern Rock (From the ‘For Your Lungs Only’ EP).wav

Peak level 100.0 %
Track quality 100.0 %
Test CRC B1ED4211
Copy CRC B1ED4211
Accurately ripped (confidence 10) [55EAF171]
Copy OK

Track 8

Filename E:\Rips\Alkaline Trio\2000 – Alkaline Trio\08 – Cooking Wine (From the ‘For Your Lungs Only’ EP).wav

Peak level 100.0 %
Track quality 100.0 %
Test CRC 555D698E
Copy CRC 555D698E
Accurately ripped (confidence 10) [13A58373]
Copy OK

Track 9

Filename E:\Rips\Alkaline Trio\2000 – Alkaline Trio\09 – For Your Lungs Only (From the ‘For Your Lungs Only’ EP).wav

Peak level 100.0 %
Track quality 100.0 %
Test CRC AFF068B5
Copy CRC AFF068B5
Accurately ripped (confidence 10) [9A3810A6]
Copy OK

Track 10

Filename E:\Rips\Alkaline Trio\2000 – Alkaline Trio\10 – Exploding Boy (From ‘Pocket Bomb’).wav

Pre-gap length 0:00:02.00

Peak level 99.8 %
Track quality 100.0 %
Test CRC CC0D590D
Copy CRC CC0D590D
Accurately ripped (confidence 9) [C9717649]
Copy OK

Track 11

Filename E:\Rips\Alkaline Trio\2000 – Alkaline Trio\11 – Sun Dials (From the ‘Sundials’ EP).wav

Pre-gap length 0:00:02.01

Peak level 100.0 %
Track quality 99.9 %
Test CRC 877A75AF
Copy CRC 877A75AF
Accurately ripped (confidence 8) [51D9D653]
Copy OK

Track 12

Filename E:\Rips\Alkaline Trio\2000 – Alkaline Trio\12 – Nose Over Tail (From the ‘Sundials’ EP).wav

Pre-gap length 0:00:02.00

Peak level 100.0 %
Track quality 100.0 %
Test CRC 85F3D509
Copy CRC 85F3D509
Accurately ripped (confidence 9) [A48FD031]
Copy OK

Track 13

Filename E:\Rips\Alkaline Trio\2000 – Alkaline Trio\13 – ’97 (From the ‘Marc’s A Dick and Gar’s A Drunk – The Johann’s Face Story Compilation).wav

Pre-gap length 0:00:02.01

Peak level 100.0 %
Track quality 100.0 %
Test CRC 7EB040FE
Copy CRC 7EB040FE
Accurately ripped (confidence 8) [44DFDA31]
Copy OK

All tracks accurately ripped

No errors occurred

End of status report

REM GENRE Indie
REM DATE 2000
REM DISCID A609BE0D
REM COMMENT “ExactAudioCopy v0.99pb4”
FILE “Alkaline Trio\2000 – Alkaline Trio\01 – Goodbye Forever (From the ‘I Lied My Face Off’ EP).wav” WAVE
TRACK 01 AUDIO
INDEX 01 00:00:00
FILE “Alkaline Trio\2000 – Alkaline Trio\02 – This Is Getting Over You (From the ‘I Lied My Face Off’ EP).wav” WAVE
TRACK 02 AUDIO
INDEX 01 00:00:00
FILE “Alkaline Trio\2000 – Alkaline Trio\03 – Bleeder (From the ‘I Lied My Face Off’ EP).wav” WAVE
TRACK 03 AUDIO
INDEX 01 00:00:00
FILE “Alkaline Trio\2000 – Alkaline Trio\04 – I Lied My Face Off (From the ‘I Lied My Face Off’ EP).wav” WAVE
TRACK 04 AUDIO
INDEX 01 00:00:00
TRACK 05 AUDIO
INDEX 00 04:07:43
FILE “Alkaline Trio\2000 – Alkaline Trio\05 – My Friend Peter (From the ‘Magnetic Curses’ Compilation).wav” WAVE
INDEX 01 00:00:00
TRACK 06 AUDIO
INDEX 00 02:12:66
FILE “Alkaline Trio\2000 – Alkaline Trio\06 – Snake Oil Tanker (From the ‘For Your Lungs Only’ EP).wav” WAVE
INDEX 01 00:00:00
FILE “Alkaline Trio\2000 – Alkaline Trio\07 – Southern Rock (From the ‘For Your Lungs Only’ EP).wav” WAVE
TRACK 07 AUDIO
INDEX 01 00:00:00
FILE “Alkaline Trio\2000 – Alkaline Trio\08 – Cooking Wine (From the ‘For Your Lungs Only’ EP).wav” WAVE
TRACK 08 AUDIO
INDEX 01 00:00:00
FILE “Alkaline Trio\2000 – Alkaline Trio\09 – For Your Lungs Only (From the ‘For Your Lungs Only’ EP).wav” WAVE
TRACK 09 AUDIO
INDEX 01 00:00:00
TRACK 10 AUDIO
INDEX 00 02:24:44
FILE “Alkaline Trio\2000 – Alkaline Trio\10 – Exploding Boy (From ‘Pocket Bomb’).wav” WAVE
INDEX 01 00:00:00
TRACK 11 AUDIO
INDEX 00 02:55:54
FILE “Alkaline Trio\2000 – Alkaline Trio\11 – Sun Dials (From the ‘Sundials’ EP).wav” WAVE
INDEX 01 00:00:00
TRACK 12 AUDIO
INDEX 00 03:41:60
FILE “Alkaline Trio\2000 – Alkaline Trio\12 – Nose Over Tail (From the ‘Sundials’ EP).wav” WAVE
INDEX 01 00:00:00
TRACK 13 AUDIO
INDEX 00 02:33:15
FILE “Alkaline Trio\2000 – Alkaline Trio\13 – ’97 (From the ‘Marc’s A Dick and Gar’s A Drunk – The Johann’s Face Story Compilation).wav” WAVE
INDEX 01 00:00:00


0

Publication author

offline 4 days

Chaos

3
Comments: 4Publics: 3565Registration: 02-02-2019
Spread the Download

Leave a Reply

Your email address will not be published. Required fields are marked *

Enter the text from the image below
 

This site uses Akismet to reduce spam. Learn how your comment data is processed.