Alien Ant Farm – Up In The Attic




No Cover available

Artist: Alien Ant Farm
Year: 2006
Genre: Rock
Notes: Discogs
Add. Notes:
Watch Songs on: YouTube
Cover incl.: Yes
Encoder: FLAC
Bitrate: ~1000 kBit/s (44.1 kHz/16 Bit/s)
Log & Cue incl.: Yes/Yes
Size: 397,8 MB
Password: “slam” (without ” “)


All Downloads/Hosters are compatible

Download 1
KatFile.com
Turbobit.net
Rapidgator.net
FileFactory.com
Download 2
KatFile.com
Turbobit.net
Rapidgator.net
FileFactory.com

Tracklist:

1 Bad Morning 3:45
2 Forgive & Forget 3:01
3 What I Feel Is Mine 3:01
4 It Could Happen 3:56
5 Around The Block 3:18
6 San Sebastian 3:07
7 Lord Knows 3:09
8 Getting Closer 3:51
9 Crickets 4:38
10 Supreme Lifestyle 3:58
11 Consti2tion 3:40
12 State Of Emergency 3:31
13 Sleepwalker 3:09
14a She's Only Evil 8:29
14b Beehive 
14c Album End 

EAC-Log, CUE-Sheed & NFO:

Click to open spoiler
Exact Audio Copy V0.99 prebeta 5 from 4. May 2009

EAC extraction logfile from 5. August 2010, 12:41

Alien Ant Farm / Up In The Attic

Used drive : ATAPI iHAS424 Y Adapter: 1 ID: 0

Read mode : Secure
Utilize accurate stream : Yes
Defeat audio cache : Yes
Make use of C2 pointers : No

Read offset correction : 48
Overread into Lead-In and Lead-Out : No
Fill up missing offset samples with silence : Yes
Delete leading and trailing silent blocks : No
Null samples used in CRC calculations : Yes
Used interface : Native Win32 interface for Win NT & 2000
Gap handling : Appended to previous track

Used output format : User Defined Encoder
Selected bitrate : 320 kBit/s
Quality : High
Add ID3 tag : No
Command line compressor : C:\Program Files (x86)\Exact Audio Copy\Flac\flac.exe
Additional command line options : -V -8 -T “artist=%a” -T “title=%t” -T “album=%g” -T “date=%y” -T “tracknumber=%n” -T “genre=%m” %s

TOC of the extracted CD

Track | Start | Length | Start sector | End sector
———————————————————
1 | 0:00.00 | 3:42.71 | 0 | 16720
2 | 3:42.71 | 2:59.02 | 16721 | 30147
3 | 6:41.73 | 2:58.49 | 30148 | 43546
4 | 9:40.47 | 3:53.53 | 43547 | 61074
5 | 13:34.25 | 3:16.26 | 61075 | 75800
6 | 16:50.51 | 3:05.13 | 75801 | 89688
7 | 19:55.64 | 3:06.67 | 89689 | 103705
8 | 23:02.56 | 3:48.52 | 103706 | 120857
9 | 26:51.33 | 4:36.23 | 120858 | 141580
10 | 31:27.56 | 3:56.20 | 141581 | 159300
11 | 35:24.01 | 3:38.20 | 159301 | 175670
12 | 39:02.21 | 3:29.02 | 175671 | 191347
13 | 42:31.23 | 3:06.66 | 191348 | 205363
14 | 45:38.14 | 8:33.26 | 205364 | 243864
15 | 54:11.40 | 3:15.05 | 243865 | 258494

Track 1

Filename E:\EAC Extraction\Alien Ant Farm – 2006 – Up In The Attic [FLAC]\01 – Bad Morning.wav

Pre-gap length 0:00:02.00

Peak level 100.0 %
Track quality 100.0 %
Test CRC 5083125B
Copy CRC 5083125B
Accurately ripped (confidence 10) [97F56E00]
Copy OK

Track 2

Filename E:\EAC Extraction\Alien Ant Farm – 2006 – Up In The Attic [FLAC]\02 – Forgive & Forget.wav

Peak level 96.6 %
Track quality 100.0 %
Test CRC 60F9BE0F
Copy CRC 60F9BE0F
Accurately ripped (confidence 10) [C4568F00]
Copy OK

Track 3

Filename E:\EAC Extraction\Alien Ant Farm – 2006 – Up In The Attic [FLAC]\03 – What I Feel Is Mine.wav

Peak level 96.6 %
Track quality 99.9 %
Test CRC C9ECF175
Copy CRC C9ECF175
Accurately ripped (confidence 10) [C16B81E1]
Copy OK

Track 4

Filename E:\EAC Extraction\Alien Ant Farm – 2006 – Up In The Attic [FLAC]\04 – It Could Happen.wav

Peak level 96.6 %
Track quality 100.0 %
Test CRC B9252E2D
Copy CRC B9252E2D
Accurately ripped (confidence 10) [97E23D3A]
Copy OK

Track 5

Filename E:\EAC Extraction\Alien Ant Farm – 2006 – Up In The Attic [FLAC]\05 – Around The Block.wav

Peak level 96.6 %
Track quality 100.0 %
Test CRC AEC44F2D
Copy CRC AEC44F2D
Accurately ripped (confidence 10) [848F0D53]
Copy OK

Track 6

Filename E:\EAC Extraction\Alien Ant Farm – 2006 – Up In The Attic [FLAC]\06 – San Sebastian.wav

Peak level 96.6 %
Track quality 100.0 %
Test CRC B8DEF044
Copy CRC B8DEF044
Accurately ripped (confidence 10) [0DDEBD5C]
Copy OK

Track 7

Filename E:\EAC Extraction\Alien Ant Farm – 2006 – Up In The Attic [FLAC]\07 – Lord Knows.wav

Peak level 100.0 %
Track quality 100.0 %
Test CRC CCD98859
Copy CRC CCD98859
Accurately ripped (confidence 10) [38A89C4B]
Copy OK

Track 8

Filename E:\EAC Extraction\Alien Ant Farm – 2006 – Up In The Attic [FLAC]\08 – Getting Closer.wav

Peak level 96.6 %
Track quality 100.0 %
Test CRC 4E123E80
Copy CRC 4E123E80
Accurately ripped (confidence 10) [7FB5C708]
Copy OK

Track 9

Filename E:\EAC Extraction\Alien Ant Farm – 2006 – Up In The Attic [FLAC]\09 – Crickets.wav

Peak level 100.0 %
Track quality 100.0 %
Test CRC 7A13B713
Copy CRC 7A13B713
Accurately ripped (confidence 10) [EE7DD9A4]
Copy OK

Track 10

Filename E:\EAC Extraction\Alien Ant Farm – 2006 – Up In The Attic [FLAC]\10 – Supreme Lifestyle.wav

Peak level 96.6 %
Track quality 100.0 %
Test CRC 5CFD21DB
Copy CRC 5CFD21DB
Accurately ripped (confidence 10) [F84555E1]
Copy OK

Track 11

Filename E:\EAC Extraction\Alien Ant Farm – 2006 – Up In The Attic [FLAC]\11 – Consti2tion.wav

Peak level 96.6 %
Track quality 100.0 %
Test CRC D19C101C
Copy CRC D19C101C
Accurately ripped (confidence 10) [69768A58]
Copy OK

Track 12

Filename E:\EAC Extraction\Alien Ant Farm – 2006 – Up In The Attic [FLAC]\12 – State Of Emergency.wav

Peak level 96.6 %
Track quality 100.0 %
Test CRC D42005E8
Copy CRC D42005E8
Accurately ripped (confidence 10) [14C43411]
Copy OK

Track 13

Filename E:\EAC Extraction\Alien Ant Farm – 2006 – Up In The Attic [FLAC]\13 – Sleepwalker.wav

Peak level 96.6 %
Track quality 100.0 %
Test CRC FF5C9DEA
Copy CRC FF5C9DEA
Accurately ripped (confidence 10) [ECCBE73C]
Copy OK

Track 14

Filename E:\EAC Extraction\Alien Ant Farm – 2006 – Up In The Attic [FLAC]\14 – She’s Only Evil.wav

Peak level 96.9 %
Track quality 99.9 %
Test CRC 32875C88
Copy CRC 32875C88
Accurately ripped (confidence 10) [50ACD1D8]
Copy OK

Track 15

Filename E:\EAC Extraction\Alien Ant Farm – 2006 – Up In The Attic [FLAC]\15 – Repeat Defender.wav

Pre-gap length 0:00:06.74

Peak level 100.0 %
Track quality 100.0 %
Test CRC 8D0B3975
Copy CRC 8D0B3975
Accurately ripped (confidence 10) [7C08F59E]
Copy OK

All tracks accurately ripped

No errors occurred

End of status report

EM GENRE Rock
REM DATE 2006
REM DISCID BB0D760F
REM COMMENT “ExactAudioCopy v0.99pb5”
PERFORMER “Alien Ant Farm”
TITLE “Up in the Attic”
FILE “01 – Bad Morning.wav” WAVE
TRACK 01 AUDIO
INDEX 01 00:00:00
FILE “02 – Forgive & Forget.wav” WAVE
TRACK 02 AUDIO
INDEX 01 00:00:00
FILE “03 – What I Feel Is Mine.wav” WAVE
TRACK 03 AUDIO
INDEX 01 00:00:00
FILE “04 – It Could Happen.wav” WAVE
TRACK 04 AUDIO
INDEX 01 00:00:00
FILE “05 – Around The Block.wav” WAVE
TRACK 05 AUDIO
INDEX 01 00:00:00
FILE “06 – San Sebastian.wav” WAVE
TRACK 06 AUDIO
INDEX 01 00:00:00
FILE “07 – Lord Knows.wav” WAVE
TRACK 07 AUDIO
INDEX 01 00:00:00
FILE “08 – Getting Closer.wav” WAVE
TRACK 08 AUDIO
INDEX 01 00:00:00
FILE “09 – Crickets.wav” WAVE
TRACK 09 AUDIO
INDEX 01 00:00:00
FILE “10 – Supreme Lifestyle.wav” WAVE
TRACK 10 AUDIO
INDEX 01 00:00:00
FILE “11 – Consti2tion.wav” WAVE
TRACK 11 AUDIO
INDEX 01 00:00:00
FILE “12 – State Of Emergency.wav” WAVE
TRACK 12 AUDIO
INDEX 01 00:00:00
FILE “13 – Sleepwalker.wav” WAVE
TRACK 13 AUDIO
INDEX 01 00:00:00
FILE “14 – She’s Only Evil.wav” WAVE
TRACK 14 AUDIO
INDEX 01 00:00:00
TRACK 15 AUDIO
INDEX 00 08:26:27
FILE “15 – Repeat Defender.wav” WAVE
INDEX 01 00:00:00


0

Publication author

offline 8 hours

Chaos

3
Comments: 4Publics: 3424Registration: 02-02-2019
Spread the Download

Leave a Reply

Your email address will not be published. Required fields are marked *

Enter the text from the image below
 

This site uses Akismet to reduce spam. Learn how your comment data is processed.