Alien Ant Farm – The Best Of Alien Ant Farm




No Cover available


Artist: Alien Ant Farm
Year: 2008
Genre: Metal
Notes: Discogs
Add. Notes:
Watch Songs on: YouTube
Cover incl.: Yes
Encoder: FLAC
Bitrate: ~1000 kBit/s (44.1 kHz/16 Bit/s)
Log & Cue incl.: Yes/Yes
Size: 295,1 MB
Password: “slam” (without ” “)


All Downloads/Hosters are compatible

Download 1
KatFile.com
Turbobit.net
Rapidgator.net
FileFactory.com
Download 2
KatFile.com
Turbobit.net
Rapidgator.net
FileFactory.com

Tracklist:

1 Movies 3:17
2 These Days 3:07
3 Smooth Criminal 3:31
4 Spain 3:05
5 Glow 3:18
6 Forgive & Forget 2:55
7 Crickets 4:39
8 Drifting Apart 2:56
9 Pink Tea (Remix) 4:09
10 What I Feel Is Mine 2:54
11 Attitude 4:55

EAC-Log, CUE-Sheed & NFO:

Click to open spoiler
Exact Audio Copy V0.99 prebeta 5 from 4. May 2009

EAC extraction logfile from 5. August 2009, 19:38

Alien Ant Farm / The Best Of

Used drive : ATAPI DVD A DH20A4P Adapter: 1 ID: 1

Read mode : Secure
Utilize accurate stream : Yes
Defeat audio cache : Yes
Make use of C2 pointers : No

Read offset correction : 6
Overread into Lead-In and Lead-Out : No
Fill up missing offset samples with silence : Yes
Delete leading and trailing silent blocks : No
Null samples used in CRC calculations : No
Used interface : Native Win32 interface for Win NT & 2000
Gap handling : Appended to previous track

Used output format : User Defined Encoder
Selected bitrate : 1024 kBit/s
Quality : High
Add ID3 tag : No
Command line compressor : C:\Program Files\FLAC\flac.exe
Additional command line options : -V -T “artist=%a” -T “title=%t” -T “album=%g” -T “date=%y” -T “tracknumber=%n” -T “genre=%m” -5 %s

TOC of the extracted CD

Track | Start | Length | Start sector | End sector
———————————————————
1 | 0:00.00 | 3:16.61 | 0 | 14760
2 | 3:16.61 | 3:07.00 | 14761 | 28785
3 | 6:23.61 | 3:30.46 | 28786 | 44581
4 | 9:54.32 | 3:05.27 | 44582 | 58483
5 | 12:59.59 | 3:18.18 | 58484 | 73351
6 | 16:18.02 | 2:55.21 | 73352 | 86497
7 | 19:13.23 | 4:38.40 | 86498 | 107387
8 | 23:51.63 | 2:56.30 | 107388 | 120617
9 | 26:48.18 | 4:09.29 | 120618 | 139321
10 | 30:57.47 | 2:54.20 | 139322 | 152391
11 | 33:51.67 | 4:54.69 | 152392 | 174510

Track 1

Filename C:\Users\\Desktop\Alien Ant Farm- The Best Of (2008)\01. Movies.wav

Pre-gap length 0:00:02.00

Peak level 98.8 %
Track quality 100.0 %
Test CRC D405BDDA
Copy CRC D405BDDA
Accurately ripped (confidence 1) [E2717D9B]
Copy OK

Track 2

Filename C:\Users\\Desktop\Alien Ant Farm- The Best Of (2008)\02. These Days.wav

Pre-gap length 0:00:01.08

Peak level 97.7 %
Track quality 100.0 %
Test CRC F7AC966F
Copy CRC F7AC966F
Accurately ripped (confidence 1) [F8D0DDE4]
Copy OK

Track 3

Filename C:\Users\\Desktop\Alien Ant Farm- The Best Of (2008)\03. Smooth Criminal.wav

Pre-gap length 0:00:01.33

Peak level 97.7 %
Track quality 100.0 %
Test CRC 360C2356
Copy CRC 360C2356
Accurately ripped (confidence 1) [7357752D]
Copy OK

Track 4

Filename C:\Users\\Desktop\Alien Ant Farm- The Best Of (2008)\04. Spain.wav

Pre-gap length 0:00:01.19

Peak level 97.7 %
Track quality 100.0 %
Test CRC DCD2F610
Copy CRC DCD2F610
Accurately ripped (confidence 1) [DB87DDB0]
Copy OK

Track 5

Filename C:\Users\\Desktop\Alien Ant Farm- The Best Of (2008)\05. Glow.wav

Pre-gap length 0:00:01.34

Peak level 97.7 %
Track quality 99.9 %
Test CRC 510B88CB
Copy CRC 510B88CB
Accurately ripped (confidence 1) [06B5BFD6]
Copy OK

Track 6

Filename C:\Users\\Desktop\Alien Ant Farm- The Best Of (2008)\06. Forgive & Forget.wav

Pre-gap length 0:00:01.25

Peak level 97.7 %
Track quality 100.0 %
Test CRC B67E2041
Copy CRC B67E2041
Accurately ripped (confidence 1) [27031672]
Copy OK

Track 7

Filename C:\Users\\Desktop\Alien Ant Farm- The Best Of (2008)\07. Crickets.wav

Peak level 97.7 %
Track quality 100.0 %
Test CRC 5219024F
Copy CRC 5219024F
Accurately ripped (confidence 1) [658BEA9D]
Copy OK

Track 8

Filename C:\Users\\Desktop\Alien Ant Farm- The Best Of (2008)\08. Drifting Apart.wav

Pre-gap length 0:00:01.70

Peak level 97.7 %
Track quality 100.0 %
Test CRC CC5DDD1E
Copy CRC CC5DDD1E
Accurately ripped (confidence 1) [8896716D]
Copy OK

Track 9

Filename C:\Users\\Desktop\Alien Ant Farm- The Best Of (2008)\09. Pink Tea (Remix).wav

Pre-gap length 0:00:01.62

Peak level 97.7 %
Track quality 99.9 %
Test CRC 6D842C49
Copy CRC 6D842C49
Accurately ripped (confidence 1) [A4BA264C]
Copy OK

Track 10

Filename C:\Users\\Desktop\Alien Ant Farm- The Best Of (2008)\10. What I Feel Is Mine.wav

Pre-gap length 0:00:01.47

Peak level 97.7 %
Track quality 100.0 %
Test CRC 2C2E7E63
Copy CRC 2C2E7E63
Accurately ripped (confidence 1) [11788BF4]
Copy OK

Track 11

Filename C:\Users\\Desktop\Alien Ant Farm- The Best Of (2008)\11. Attitude.wav

Pre-gap length 0:00:01.69

Peak level 97.7 %
Track quality 100.0 %
Test CRC C6A682B9
Copy CRC C6A682B9
Accurately ripped (confidence 1) [5038A09B]
Copy OK

All tracks accurately ripped

No errors occurred

End of status report

REM GENRE “Alt. Rock”
REM DATE 2008
REM DISCID 9709160B
REM COMMENT “ExactAudioCopy v0.99pb5”
CATALOG 0602517647053
PERFORMER “Alien Ant Farm”
TITLE “The Best Of”
FILE “01. Movies.wav” WAVE
TRACK 01 AUDIO
TITLE “Movies”
PERFORMER “Alien Ant Farm”
ISRC USDW10022217
INDEX 01 00:00:00
TRACK 02 AUDIO
TITLE “These Days”
PERFORMER “Alien Ant Farm”
ISRC USDW10300452
INDEX 00 03:15:53
FILE “02. These Days.wav” WAVE
INDEX 01 00:00:00
TRACK 03 AUDIO
TITLE “Smooth Criminal”
PERFORMER “Alien Ant Farm”
ISRC USDW10022224
INDEX 00 03:05:42
FILE “03. Smooth Criminal.wav” WAVE
INDEX 01 00:00:00
TRACK 04 AUDIO
TITLE “Spain”
PERFORMER “Alien Ant Farm”
ISRC USUM70811802
INDEX 00 03:29:27
FILE “04. Spain.wav” WAVE
INDEX 01 00:00:00
TRACK 05 AUDIO
TITLE “Glow”
PERFORMER “Alien Ant Farm”
ISRC USDW10300451
INDEX 00 03:03:68
FILE “05. Glow.wav” WAVE
INDEX 01 00:00:00
TRACK 06 AUDIO
TITLE “Forgive & Forget”
PERFORMER “Alien Ant Farm”
ISRC USUM70602945
INDEX 00 03:16:68
FILE “06. Forgive & Forget.wav” WAVE
INDEX 01 00:00:00
FILE “07. Crickets.wav” WAVE
TRACK 07 AUDIO
TITLE “Crickets”
PERFORMER “Alien Ant Farm”
ISRC USUM70602451
INDEX 01 00:00:00
TRACK 08 AUDIO
TITLE “Drifting Apart”
PERFORMER “Alien Ant Farm”
ISRC USDW10300449
INDEX 00 04:36:45
FILE “08. Drifting Apart.wav” WAVE
INDEX 01 00:00:00
TRACK 09 AUDIO
TITLE “Pink Tea (Remix)”
PERFORMER “Alien Ant Farm”
ISRC USUM70811801
INDEX 00 02:54:43
FILE “09. Pink Tea (Remix).wav” WAVE
INDEX 01 00:00:00
TRACK 10 AUDIO
TITLE “What I Feel Is Mine”
PERFORMER “Alien Ant Farm”
ISRC USUM70602445
INDEX 00 04:07:57
FILE “10. What I Feel Is Mine.wav” WAVE
INDEX 01 00:00:00
TRACK 11 AUDIO
TITLE “Attitude”
PERFORMER “Alien Ant Farm”
ISRC USDW10022218
INDEX 00 02:52:26
FILE “11. Attitude.wav” WAVE
INDEX 01 00:00:00


Leave a Reply

Your email address will not be published. Required fields are marked *

Enter the text from the image below
 

This site uses Akismet to reduce spam. Learn how your comment data is processed.